Browse Collections Artists Sources   Search Dates

Add Show    List Management    Help


Grateful Dead 05/26/73
Kezar Stadium, San Francisco, CA
Comments Add Comment    Source Collectors    Add to Collection    Add to Want List    History
Source # 83535 Other Sources
Entered by Gary Field
Checksums ffp , flac-md5
Disc Counts 2 / 4
Media Size
Date Circulated
Date Added
03/22/2007
03/22/2007
Source Summary flac16; Recording Info: SBD -> Master Reel -> PCM -> Dat Transfer Info: Dat -> CD -> Samplitude Professional v9.02 -> FLAC All Transfers and Mastering By Charlie Miller 
  Archive
Source Information - Download Text | Download Zip
Grateful Dead - May 26, 1973
Kezar Stadium - San Francisco, CA

Recording Info:
SBD -> Master Reel -> PCM -> Dat

Transfer Info:
Dat -> CD -> Samplitude Professional v9.02 -> FLAC
(4 Discs Audio / 2 Discs FLAC)

All Transfers and Mastering By Charlie Miller
[email protected]
March 20, 2007

Patch Info:
Sony Stereo Mic -> Cassette Master (Sony TC-124) supplies:
Row Jimmy (3:31 - 4:51)
China Cat Sunflower (3:15 - 3:45)
The Other One (9:31 - 9:53)

Notes:
-- All disc changes are seamless
-- Patch source recorded by Gene Taback and supplied by David Minches
-- Patch source pitch corrected - it's better, but not perfect
-- Numerous background noises removed in SBD, but some still remain

Set 1
d1t01 - The Promised Land
d1t02 - Deal
d1t03 - Jack Straw
d1t04 - Tennessee Jed
d1t05 - The Race Is On
d1t06 - Sugaree
d1t07 - Mexicali Blues
d1t08 - Row Jimmy
d1t09 - Looks Like Rain
d1t10 - They Love Each Other
d2t01 - Playing In The Band

Set 2:
d2t02 - Tuning
d2t03 - Here Comes Sunshine
d2t04 - El Paso
d2t05 - Loser
d2t06 - Beat It On Down The Line
d2t07 - You Ain't Woman Enough
d2t08 - Box Of Rain
d2t09 - China Cat Sunflower ->
d2t10 - I Know You Rider
d2t11 - Big River
d3t01 - Bertha
d3t02 - Around And Around

Set 3:
d3t03 - Mississippi Half-Step Uptown Toodeloo
d3t04 - Me And My Uncle
d4t01 - He's Gone ->
d4t02 - Truckin' ->
d4t03 - The Other One ->
d4t04 - Eyes Of The World ->
d4t05 - China Doll
d4t06 - Sugar Magnolia

Encore:
d4t07 - Casey Jones


SHNTOOL OUTPUT:
    length     expanded size   cdr  WAVE problems filename
     3:26.60       36479564    ---   --   -----   gd73-05-26d1t01.wav
     6:24.47       67848188    ---   --   -----   gd73-05-26d1t02.wav
     5:37.60       59587964    ---   --   -----   gd73-05-26d1t03.wav
     8:52.70       94009484    ---   --   -----   gd73-05-26d1t04.wav
     3:46.44       39969932    ---   --   -----   gd73-05-26d1t05.wav
     9:46.25      103429244    ---   --   -----   gd73-05-26d1t06.wav
     4:17.19       45379532    ---   --   -----   gd73-05-26d1t07.wav
    10:10.39      107695772    ---   --   -----   gd73-05-26d1t08.wav
     7:32.08       79751660    ---   --   -----   gd73-05-26d1t09.wav
     7:34.59       80224412    ---   --   -----   gd73-05-26d1t10.wav
    16:58.23      179629340    ---   --   -----   gd73-05-26d2t01.wav
     1:21.10       14311964    ---   --   -----   gd73-05-26d2t02.wav
    12:42.11      134442716    ---   --   -----   gd73-05-26d2t03.wav
     6:29.72       68788988    ---   --   -----   gd73-05-26d2t04.wav
     7:54.38       83703020    ---   --   -----   gd73-05-26d2t05.wav
     3:59.38       42249020    ---   --   -----   gd73-05-26d2t06.wav
     3:54.31       41350556    ---   --   -----   gd73-05-26d2t07.wav
     5:45.21       60907436    ---   --   -----   gd73-05-26d2t08.wav
     7:37.23       80668940    ---   --   -----   gd73-05-26d2t09.wav
     6:20.34       67112012    ---   --   -----   gd73-05-26d2t10.wav
     5:29.16       58073276    ---   --   -----   gd73-05-26d2t11.wav
     5:49.39       61655372    ---   --   -----   gd73-05-26d3t01.wav
     5:16.39       55834172    ---   --   -----   gd73-05-26d3t02.wav
     8:56.11       94576316    ---   --   -----   gd73-05-26d3t03.wav
     3:06.30       32881004    ---   --   -----   gd73-05-26d3t04.wav
    14:24.33      152487260    ---   --   -----   gd73-05-26d4t01.wav
     9:01.36       95517116    ---   --   -----   gd73-05-26d4t02.wav
    17:26.15      184549724    ---   --   -----   gd73-05-26d4t03.wav
    13:39.10      144495164    ---   --   -----   gd73-05-26d4t04.wav
     6:36.50       69972044    ---   --   -----   gd73-05-26d4t05.wav
    10:52.69      115175132    ---   --   -----   gd73-05-26d4t06.wav
     6:55.09       73227212    ---   --   -----   gd73-05-26d4t07.wav
   248:06.39     2625983536 B                     (totals for 32 files)
Show Checksums
ffp
gd73-05-26d1t01.flac:43917eeb2a6e1d625563b457d30c16fc
gd73-05-26d1t02.flac:b5cb9e4df527d9f3bff7b30570bfedf3
gd73-05-26d1t03.flac:95680fca3ebf2bd6502a7eae5b2d980c
gd73-05-26d1t04.flac:aae2e4d1ab7fe7bba343ef24a64ebaee
gd73-05-26d1t05.flac:e881e91d93ca0fb61044b40142b51ff1
gd73-05-26d1t06.flac:fe67b1542c19053ffb186b0c063f9445
gd73-05-26d1t07.flac:f930c3f9b8c4e57446e8ac565c65ddee
gd73-05-26d1t08.flac:821f90e7217956fb24a1959a722093c8
gd73-05-26d1t09.flac:58bfaed074569cb37eb9c9c1281ff6d9
gd73-05-26d1t10.flac:63a88e2ac029a738f522684895e76b3d
gd73-05-26d2t01.flac:8052aebd0de14e3d5f840362a4c4cdde
gd73-05-26d2t02.flac:8ab52695522a66cb22444710a3de7958
gd73-05-26d2t03.flac:55147c2e2defd9542cb6d2df1c9ebd7d
gd73-05-26d2t04.flac:eec024b424a410e12e03d72e7756c856
gd73-05-26d2t05.flac:091fe1954b01cfc5d827708eb9a673a6
gd73-05-26d2t06.flac:e81328241deec9a2464a700c04b82231
gd73-05-26d2t07.flac:c289c1b68c7d93178127837dd18e86ba
gd73-05-26d2t08.flac:32bf267e7b53a505e9e78cb2187f6275
gd73-05-26d2t09.flac:7f154d1139a4797e2e0b11901b824929
gd73-05-26d2t10.flac:0b02d1292e7063ecf73258466b7805b3
gd73-05-26d2t11.flac:87d7971d310cd23fe511a4eb9d1e7ddf
gd73-05-26d3t01.flac:66638bf3002c74cd96f24e98708ed3de
gd73-05-26d3t02.flac:1e59c75f1dfb34357cd67feedc9b78a0
gd73-05-26d3t03.flac:2cab8017f33b20e6bd821e5ba6897a6d
gd73-05-26d3t04.flac:6d818e1cd6a1d29413eff39d4df0189f
gd73-05-26d4t01.flac:2a7070b949d29820a4626d184b38b526
gd73-05-26d4t02.flac:1e2caf0b06b1511b1dc5a996d9301c9e
gd73-05-26d4t03.flac:e35e33d1aa3f2dfdaf9ae466828eeb32
gd73-05-26d4t04.flac:30013d0c98a3b65e1e80cf79c16c89bc
gd73-05-26d4t05.flac:7209c0e67ddcd2f6719cf707aabfc9cc
gd73-05-26d4t06.flac:27b3eb97bc1c8970790f9169405e344a
gd73-05-26d4t07.flac:f66e0b6f831778f7365235d751423d05
flac-md5
e203353bd86ca4e55cd2c49ea02b5540 *gd73-05-26d1t01.flac
f4e5c457b8e22d42a7e64c8d900fdaa6 *gd73-05-26d1t02.flac
2f2dad414a420715ac4a34c77e64adb2 *gd73-05-26d1t03.flac
2b7474f267a107b2d324f135bde96cca *gd73-05-26d1t04.flac
414153dd38e08de3e483d905fc9007a6 *gd73-05-26d1t05.flac
48d07eff0ff787062246b973845e7229 *gd73-05-26d1t06.flac
6e62ef1ea1ddc402207f205ef0c30259 *gd73-05-26d1t07.flac
da373953edc2d7faed71ec3de86e2631 *gd73-05-26d1t08.flac
13992a1262950c81fc00fad500868271 *gd73-05-26d1t09.flac
dba8af142f95b165b4fec1515229b065 *gd73-05-26d1t10.flac
67cd6fde4f7a1b03124b0cd918b894c0 *gd73-05-26d2t01.flac
9e5ccd1b5a682cf0f77a124f6aeff4ea *gd73-05-26d2t02.flac
c7cdd0f47bac30da3fa8f32981dcb0d9 *gd73-05-26d2t03.flac
c7371759a32202ff7f5e7c48e56f9c1b *gd73-05-26d2t04.flac
0413323d25d2d10a31c87d341af768bf *gd73-05-26d2t05.flac
b6c805f7cc855c9d1695f44c2a6bf0ed *gd73-05-26d2t06.flac
e770ed24fd986173e9a3444d46f6e16a *gd73-05-26d2t07.flac
9f73801787e5fea7f5157975ec6bc07d *gd73-05-26d2t08.flac
b3f85666fa460464de29cc5dd5fd9b8b *gd73-05-26d2t09.flac
a531f4d3fd97de4e33a5d27f50025af9 *gd73-05-26d2t10.flac
273e6ef2e7a78901a4833a8e60b05765 *gd73-05-26d2t11.flac
b3d044f6d6516905cb89eacd81da35d3 *gd73-05-26d3t01.flac
ddfa06613121f759e672795e45bd42a7 *gd73-05-26d3t02.flac
6e3141d2972c5bbb22876d258574353e *gd73-05-26d3t03.flac
7dfcfa7315afd2b9b7b1872fa1b0580d *gd73-05-26d3t04.flac
e405a614c4497dc97df0e1143e19f5e9 *gd73-05-26d4t01.flac
4abee3ffd93a5766259565a964960992 *gd73-05-26d4t02.flac
1dc0470049c557645bb68bb634663142 *gd73-05-26d4t03.flac
46e100ee049975d0df9024a5ef63609e *gd73-05-26d4t04.flac
0912c8e7f8d86ddce8db737b1a24b01a *gd73-05-26d4t05.flac
852bb60e531b31c1e620d7adc689bfb6 *gd73-05-26d4t06.flac
d0bc92973717fdbca83290484c5b6b4c *gd73-05-26d4t07.flac

Comments
Add Comment
Other Sources (comments)
Re-eac of (10) MSR>DAT>CD>EAC>WAV>SHN... (4) flac16;... (0) flac16; 7" Betty... (0)
Date User Comment