Browse Collections Artists Sources   Search Dates

Add Show    List Management    Help


The Dinosaurs 04/28/84
Starry Night Club, Portland, OR
Comments Add Comment    Source Collectors    Add to Collection    Add to Want List    History
Source # 83603 Other Sources
Entered by Matt Vernon
Checksums dinosaurs
Disc Counts 2 / 3
Media Size
Date Circulated
Date Added
05/23/2006
03/24/2007
Source Summary Source: Sony ECM-939LT stereo mic > Toshiba KT-R2 walkman. Taped onto Maxell XL-II tapes. Mic set up in front center of balcony. Transfer: Nakamichi Dragon (no Dolby for playback) > HHB-830 burner > EAC > WAV > Soundforge 6.0 > CD-Wave > FLAC Frontend (Feb 2006). Soundforge used to repair pops, clicks, and blurry tape pauses; plus to make fades and edits. Taped by Andrew F. Transfer by Anne Cohen.  
Source Information - Download Text | Download Zip
The Dinosaurs
Starry Night Club
Portland OR
04-28-1984

Disc One (48:16)

01 Who Makes The Moves
02 Medley: Slack String Quartet / Last Flash of Rock & Roll
03 The Dance
04 Blind Man
05 Streetwise
06 Motel Party Baby
07 stage banter
-- set break --

Disc Two (43:03)

01 stage banter
02 Talkin' Money Tree
03 I Can't Dance
04 Amagamalin Street
05 Get It All Together*
06 Way Down Underground*
07 Fire On The Mountain

Disc Three (78:00)

01 stage banter
02 Please Don't Drop That H-Bomb On Me
03 Mona
04 Reelin' And A-Pitchin'
05 Butcher's Boy
06 Promontory Rider
07 Ain't It Good To Be Alive
08 Closer
-- encore --
09 Sloop John B
10 San Francisco Shuffle
FILLER -- Encore from Country Joe McDonald's opening set:
11 Feel Like I'm Fixin' To Die Rag

The Dinosaurs:
Peter Albin: bass, vocals
John Cipollina: guitar, vocals
Spencer Dryden: drums
Robert Hunter: acoustic guitar, harmonica, vocals
Barry Melton: guitar, vocals
* Special Guest on D2t05 & D2t06: Country Joe McDonald

Source: Sony ECM-939LT stereo mic > Toshiba KT-R2 walkman. Taped
onto Maxell XL-II tapes. Mic set up in front center of balcony.

Transfer: Nakamichi Dragon (no Dolby for playback) > HHB-830 burner >
EAC > WAV > Soundforge 6.0 > CD-Wave > FLAC Frontend (Feb 2006).
Soundforge used to repair pops, clicks, and blurry tape pauses; plus
to make fades and edits. Taped by Andrew F. Transfer by Anne Cohen.



Shntool Output:

    length     expanded size   cdr  WAVE problems filename
    11:12.30      118611404    ---   --   ---xx   dinos1984-04-28d1t01.flac
     8:40.51       91847996    ---   --   ---xx   dinos1984-04-28d1t02.flac
    10:26.54      110553452    ---   --   ---xx   dinos1984-04-28d1t03.flac
     3:38.03       38462300    ---   --   ---xx   dinos1984-04-28d1t04.flac
     6:03.67       64190828    ---   --   ---xx   dinos1984-04-28d1t05.flac
     7:00.28       74153900    ---   --   ---xx   dinos1984-04-28d1t06.flac
     1:13.68       13037180    ---   --   ---xx   dinos1984-04-28d1t07.flac
     0:39.60        7020764    ---   --   ---xx   dinos1984-04-28d2t01.flac
     2:59.47       31686188    ---   --   ---xx   dinos1984-04-28d2t02.flac
     4:06.27       43457948    ---   --   ---xx   dinos1984-04-28d2t03.flac
     6:58.39       73826972    ---   --   ---xx   dinos1984-04-28d2t04.flac
     7:48.12       82583468    ---   --   ---xx   dinos1984-04-28d2t05.flac
    11:23.62      120627068    ---   --   ---xx   dinos1984-04-28d2t06.flac
     9:07.34       96570812    ---   --   ---xx   dinos1984-04-28d2t07.flac
     1:28.30       15593804    ---   --   ---xx   dinos1984-04-28d3t01.flac
     3:05.37       32721068    ---   --   ---xx   dinos1984-04-28d3t02.flac
    14:04.30      148952204    ---   --   ---xx   dinos1984-04-28d3t03.flac
     8:33.61       90636716    ---   --   ---xx   dinos1984-04-28d3t04.flac
     8:55.37       94461068    ---   --   ---xx   dinos1984-04-28d3t05.flac
     5:06.61       54121916    ---   --   ---xx   dinos1984-04-28d3t06.flac
     5:42.16       60366476    ---   --   ---xx   dinos1984-04-28d3t07.flac
    18:21.73      194388140    ---   --   ---xx   dinos1984-04-28d3t08.flac
     4:27.13       47129420    ---   --   ---xx   dinos1984-04-28d3t09.flac
     5:00.51       53039996    ---   --   ---xx   dinos1984-04-28d3t10.flac
     3:13.69       34207532    ---   --   ---xx   dinos1984-04-28d3t11.flac
   169:20.10     1792248620 B                     (totals for 25 files, 0.5198 overall compression ratio)

There were no sector boundary errors.
Show Checksums
dinosaurs
dinos1984-04-28d1t01.flac:9e29da55bcbb97359f18b7068f231f37
dinos1984-04-28d1t02.flac:9a32dc16f6668be4a4b7b56c05f43601
dinos1984-04-28d1t03.flac:97c1b359dd741a70c043e75bd176f4c4
dinos1984-04-28d1t04.flac:b2b40bbedf975096e232262cc8fa2dc3
dinos1984-04-28d1t05.flac:6068d3f86f21cbf712a84b467909c849
dinos1984-04-28d1t06.flac:ac6cabadeea92ebf73307c3c0e508852
dinos1984-04-28d1t07.flac:902ec982a1e894040835fea89272f7e6
dinos1984-04-28d2t01.flac:eabc613d47e5404b8e114a1f29fa1096
dinos1984-04-28d2t02.flac:0b1ac0f61b385b2882776f8d6c72164b
dinos1984-04-28d2t03.flac:0053adfed7c2272347d1910a16cb5ad7
dinos1984-04-28d2t04.flac:de464b88564d030ea420c330ee26277a
dinos1984-04-28d2t05.flac:51e1afb6456baec9d36bd307f3894c55
dinos1984-04-28d2t06.flac:b76b48929aa78da0f6a8bab0c580c814
dinos1984-04-28d2t07.flac:7d8cab66eda20e20bd1658ca182ea174
dinos1984-04-28d3t01.flac:c8b4eee991334094f0d621cb223aa502
dinos1984-04-28d3t02.flac:0af9a8b5891cb26e0a83468697b84e66
dinos1984-04-28d3t03.flac:2344f78b9eedbefb63ee9ca5aafa2020
dinos1984-04-28d3t04.flac:738a9eaf3656fa42b5e532428c325e2d
dinos1984-04-28d3t05.flac:9f9d7c66ca74ac8a595ebe658f94442b
dinos1984-04-28d3t06.flac:a34d197f81caf93d30f33706ad5da5a0
dinos1984-04-28d3t07.flac:6b1fa96275a97251e5d247212cf5dd8f
dinos1984-04-28d3t08.flac:f497f8c2e3888d3f2892448ea720e7d1
dinos1984-04-28d3t09.flac:1e9f38b753ea1978a583da20315f5dc1
dinos1984-04-28d3t10.flac:1690a80f62e59fc6c0679e4ec4421b5b
dinos1984-04-28d3t11.flac:26db8740facf93ea95949c1eb82868bf

Comments
Add Comment
Date User Comment