Browse Collections Artists Sources   Search Dates

Add Show    List Management    Help


Grateful Dead 03/29/90
Nassau Coliseum, Uniondale, NY
Comments Add Comment    Source Collectors    Add to Collection    Add to Want List    History
Source # 83612 Other Sources
Entered by Matt Vernon
Checksums ffp , flac-md5
Disc Counts 2 / 3
Media Size
Date Circulated
Date Added
03/24/2007
03/24/2007
Source Summary flac16; AUD Source: Nakamichi CM300's with CP4 shotgun capsules > Sony TC-D5M > Maxell MX-90's, with Dolby off. Mics on stand aprx 7-feet high, pointed at stacks, set up in taper's area second row center. Transfer: MAC > Sony TC-D5M (Dolby off) > Marantz CDR-500 > EAC > Soundforge > CD-Wave > TLH v.1.0.0.72 > FLAC; Taped and transferred by Andrew F  
  Archive
Source Information - Download Text | Download Zip
GRATEFUL DEAD
Nassau Coliseum
Uniondale NY
03-29-1990

Disc One (55:29)

01 crowd & tuning
02 Jack Straw >
03 Bertha
04 We Can Run
05 Ramble on Rose
06 When I Paint My Masterpiece
07 Birdsong >
08 Promised Land
-- set break --

Disc Two (55:54)

01 crowd & tuning
02 Eyes of the World >
03 Estimated Prophet >
04 Dark Star >
05 Drums >

Disc Three (45:41)

01 Percussion Space >
02 Space >
03 Dark Star >
04 The Wheel >
05 Throwing Stones >
06 Turn on Your Lovelight
-- encore --
07 crowd & tuning
08 Knockin' on Heaven's Door

Brandford Marsalis plays on Birdsong and entire Second Set.

AUD Source: Nakamichi CM300's with CP4 shotgun capsules > Sony TC-D5M > Maxell MX-90's, with Dolby off. Mics on stand aprx 7-feet high, pointed at stacks, set up in taper's area second row center.

Transfer: MAC > Sony TC-D5M (Dolby off) > Marantz CDR-500 > EAC > Soundforge > CD-Wave > TLH v.1.0.0.72 > FLAC, 3/2007.

Notes: The tape-flip in Birdsong was patched (9:13 > 9:18)
with a 1st-gen cassette from the OTS. The tape-flip in Dark
Star was patched (14:23 > 14:29) with ShnID-1317. Set two
is seamless. Soundforge was used to make fades and to add
the patches. TLH was used for SBE-OK, lossless compression,
and checksums. Taped and transferred by Andrew F.



shntool

    length     expanded size   cdr  WAVE problems filename
     1:47.67       19032428    ---   --   ---xx   gd1990-03-29d1t01.flac
     6:00.45       63609884    ---   --   ---xx   gd1990-03-29d1t02.flac
     7:37.33       80692460    ---   --   ---xx   gd1990-03-29d1t03.flac
     7:33.41       80005676    ---   --   ---xx   gd1990-03-29d1t04.flac
     8:11.48       86725340    ---   --   ---xx   gd1990-03-29d1t05.flac
     6:06.16       64600076    ---   --   ---xx   gd1990-03-29d1t06.flac
    13:30.17      142924028    ---   --   ---xx   gd1990-03-29d1t07.flac
     4:42.03       49751900    ---   --   ---xx   gd1990-03-29d1t08.flac
     1:30.33       15953660    ---   --   ---xx   gd1990-03-29d2t01.flac
    16:13.69      171799532    ---   --   ---xx   gd1990-03-29d2t02.flac
    14:41.46      155516636    ---   --   ---xx   gd1990-03-29d2t03.flac
    18:19.13      193894220    ---   --   ---xx   gd1990-03-29d2t04.flac
     5:08.69       54493532    ---   --   ---xx   gd1990-03-29d2t05.flac
     4:42.09       49766012    ---   --   ---xx   gd1990-03-29d3t01.flac
     7:24.23       78375740    ---   --   ---xx   gd1990-03-29d3t02.flac
     3:18.66       35082476    ---   --   ---xx   gd1990-03-29d3t03.flac
     4:23.60       46534364    ---   --   ---xx   gd1990-03-29d3t04.flac
     9:22.74       99310892    ---   --   ---xx   gd1990-03-29d3t05.flac
     6:50.51       72443996    ---   --   ---xx   gd1990-03-29d3t06.flac
     1:01.24       10816892    ---   --   ---xx   gd1990-03-29d3t07.flac
     8:37.54       91325852    ---   --   ---xx   gd1990-03-29d3t08.flac
   157:05.36     1662655596 B                     (totals for 21 files, 0.6309 overall compression ratio)

There were no sector boundary errors.
Show Checksums
ffp
gd1990-03-29d1t01.flac:85162642127e41ddbf6964eca703082a
gd1990-03-29d1t02.flac:4d0609c3ea14aaf3c809c7a9c6806560
gd1990-03-29d1t03.flac:f56c99c93a57f949205667cf888f7a96
gd1990-03-29d1t04.flac:8893907a65e95824232ce1954efe0846
gd1990-03-29d1t05.flac:e774323b6ecad57063ab7b740b413a3f
gd1990-03-29d1t06.flac:98319a0f2f150dc92d43c44878a048a0
gd1990-03-29d1t07.flac:157b2de4fcb36229b667ca43d091d895
gd1990-03-29d1t08.flac:1e232442ec937612c78f16c98d820c1a
gd1990-03-29d2t01.flac:262290301614a8cd1c0fae4c2b08b205
gd1990-03-29d2t02.flac:13234ec39da26ab0ecc83d50cdb7b63e
gd1990-03-29d2t03.flac:bf7a84503a5ab5744769e07a26796836
gd1990-03-29d2t04.flac:9ad7af1b098c83ae8776d7c3a6556fac
gd1990-03-29d2t05.flac:5c8442a5352cd419b8f2de228be5589f
gd1990-03-29d3t01.flac:769ed4170c9d08eccc378116ca2a3277
gd1990-03-29d3t02.flac:4f58cac62d4cb922e32235031300dba8
gd1990-03-29d3t03.flac:42404d95ba8ad9c420b98a3bc50fe394
gd1990-03-29d3t04.flac:4415ee42eb198a548f1b1b5879d1a220
gd1990-03-29d3t05.flac:4e8fe110e7eecc3dedd1dbf53b40a5d0
gd1990-03-29d3t06.flac:8807adf684db4a670dc72f6b00582b8e
gd1990-03-29d3t07.flac:42a82b5ebdd5bed7d9f90cf957d2df61
gd1990-03-29d3t08.flac:d8c428ca804645107c04ccb103ddd31a
flac-md5
8b6d162fee695ec92af3274e4bea755d *gd1990-03-29d1t01.flac
25d9fe3538ec680732e5874d0209f56b *gd1990-03-29d1t02.flac
d608a66cb6c8c5a538077a501ddfe4c8 *gd1990-03-29d1t03.flac
ebfcb8fd169ed145bede8c12b2fd595c *gd1990-03-29d1t04.flac
0937a0f47030c7c9212425fa4425de6e *gd1990-03-29d1t05.flac
aa01550ade101aa16d6d37ee7e61843b *gd1990-03-29d1t06.flac
bb2b720d8e81c4918ba3d9edba573672 *gd1990-03-29d1t07.flac
d85de9261f06628ba3b99e94fdd34eb7 *gd1990-03-29d1t08.flac
059ea3cb7d22b631b7387d97717c99be *gd1990-03-29d2t01.flac
db20b438636880c05184211d96af82a8 *gd1990-03-29d2t02.flac
885b06476fe7a3d496b7abce8949699e *gd1990-03-29d2t03.flac
fdc1d0b0d0347d490c74da49ca2b41c8 *gd1990-03-29d2t04.flac
af5279b19ac336a798ecaca09a6ff27c *gd1990-03-29d2t05.flac
7daad956091550e9e83495a81d4f0664 *gd1990-03-29d3t01.flac
96829a5928ee4b9f8725d8c801d971d7 *gd1990-03-29d3t02.flac
0940f2c9176b4b04982d465974e95a1b *gd1990-03-29d3t03.flac
1bd7ce212c27e0a863cbc0363cecc98f *gd1990-03-29d3t04.flac
27819112d9cf1890fa16ce82148b3409 *gd1990-03-29d3t05.flac
3b3a62985159d40b03ac7fedd68625eb *gd1990-03-29d3t06.flac
ca71f52c635217e685142a4fb37f03a8 *gd1990-03-29d3t07.flac
faffef35456653cd41392938f143e771 *gd1990-03-29d3t08.flac

Comments
Add Comment
Other Sources (comments)
set 2; FOB> DAT> ?> CDR,... (3) SBD> DAT> CDR; via Andy... (3) SBD> DAT> CDR> SHN by Doug... (4) SBD>DAT>CDR; fixed copy of... (0) SBD> Dat> CD; SHN... (2) Source: Unknown Mics > DAT... (0) Fix of shnid 26341 - SBD>... (1) SBD -> Dat -> CD; Cleanup... (0) flac16; Sennheiser... (2) flac16; matrix of... (0) flac24; Recorded By... (0) flac16; Recorded By... (0) flac16/48kHz;... (0) flac16; Source:... (0) flac16/48kHz;... (0) flac16; Source:... (0) flac24; Master... (0) flac16; Master... (0) flac16; matrix of... (0) flac16/48kHz; Ted... (0)
Date User Comment