Browse Collections Artists Sources   Search Dates

Add Show    List Management    Help


Bob Weir 05/29/86
The Saint, New York, NY
Comments Add Comment    Source Collectors    Add to Collection    Add to Want List    History
Source # 83618 Other Sources
Entered by ziko
Checksums ffp , md5
Disc Counts 1 / 2
Media Size Compressed: 851.93 MB (893311604 bytes)
Date Circulated
Date Added
01/07/2007
03/24/2007
Source Summary Bob Weir & Friends
SBD > Cm > Cass > Dat > CD > EAC > Flac
Seed discs provided by TinyDancer, EAC>Flac by dglangfo 
  Archive
Source Information - Download Text | Download Zip
Bob Weir and Friends - May 29, 1986
The Saint (Fillmore East) - New York, NY

Billed as The Great 60's Ball
To Benefit WBAI and Radio Free America

SBDmc > C > DAT > CD > EAC > flac

Seed discs provided by TinyDancer Jan 2007
EAC>Flac by dglangfo Jan 2007


Soundcheck:

d1t01 Easy To Slip (false start)
d1t02 Easy To Slip
d1t03 Spoonful
d1t04 Winners
d1t05 Hey Jude
d1t06 Desolation Row


d2t01 Abbie Hoffman Intro > Festival
d2t02 City Girls
d2t03 My Blue Tears
d2t04 This Time Forever
d2t05 Desolation Row
d2t06 Youngblood
d2t07 Spoonful
d2t08 Winners
d2t09 Easy To Slip
d2t10 Victim Or The Crime
d2t11 Throwing Stones
d2t12 Baby What You Want?
d2t13 Blowin' In The Wind


Notes:
- d/o @ 2:50 of "Winners" (d2t08)
- City Girls, My Blue Tears and Desolation Row w/ Matthew Kelly
- Desolation Row w/ Steve Kimock and Barry Flast
- Youngblood > end of show w/ Kelly, Kimock, Flast, Ana Rizzo (Kingfish)
- Baby What You Want? w/ Jorma Kaukonen
- Blowin' in the Wind w/ Peter Yarrow


SHNTOOL OUTPUT:
    length     expanded size   cdr  WAVE problems filename
     2:18.07       24359708    ---   --   ---xx   bw86-05-29d1t01.flac
     3:06.72       32979788    ---   --   ---xx   bw86-05-29d1t02.flac
     1:54.19       20154332    ---   --   ---xx   bw86-05-29d1t03.flac
     1:41.19       17861132    ---   --   ---xx   bw86-05-29d1t04.flac
     1:05.59       11604812    ---   --   ---xx   bw86-05-29d1t05.flac
     4:55.68       52197980    ---   --   ---xx   bw86-05-29d1t06.flac
     7:22.71       78135836    ---   --   ---xx   bw86-05-29d2t01.flac
     4:23.26       46454396    ---   --   ---xx   bw86-05-29d2t02.flac
     2:10.56       23063756    ---   --   ---xx   bw86-05-29d2t03.flac
     3:26.30       36409004    ---   --   ---xx   bw86-05-29d2t04.flac
    10:38.44      112646732    ---   --   ---xx   bw86-05-29d2t05.flac
     3:33.40       37667324    ---   --   ---xx   bw86-05-29d2t06.flac
     4:04.28       43107500    ---   --   ---xx   bw86-05-29d2t07.flac
     3:44.31       39586556    ---   --   ---xx   bw86-05-29d2t08.flac
     7:24.26       78382796    ---   --   ---xx   bw86-05-29d2t09.flac
     3:33.61       37716716    ---   --   ---xx   bw86-05-29d2t10.flac
     9:06.72       96483788    ---   --   ---xx   bw86-05-29d2t11.flac
     5:48.74       61561292    ---   --   ---xx   bw86-05-29d2t12.flac
     4:03.31       42938156    ---   --   ---xx   bw86-05-29d2t13.flac
    84:24.09      893311604 B                     (totals for 19 files, 0.4722 overall compression ratio)
Show Checksums
ffp
bw86-05-29d1t01.flac:e87758dfb7c5e05f274f17d9c60eee85
bw86-05-29d1t02.flac:1dab4693b503a8cb2a025e59797480f8
bw86-05-29d1t03.flac:b87b205672120a8aff6686db87f92181
bw86-05-29d1t04.flac:9d1d2ecfff50edcbaf8538902264f1f6
bw86-05-29d1t05.flac:2ff0d5c2f5ed9d354d5757a2430d2286
bw86-05-29d1t06.flac:660af2098fefc759cedc65b4c941345d
bw86-05-29d2t01.flac:073238abffa8ade6d6706634f93b3903
bw86-05-29d2t02.flac:56ead28a207a440b30909c1cea4bf379
bw86-05-29d2t03.flac:559d087ee36027f28a2ef46296d6784b
bw86-05-29d2t04.flac:04649373f0c615e569730f56b52fd78f
bw86-05-29d2t05.flac:ca0e505109afbe27b69bfdbfecd15a2c
bw86-05-29d2t06.flac:724eb3fa30defbe56113ff20a8aa010f
bw86-05-29d2t07.flac:543056e174c054e2ec53f7a7f7a3c45b
bw86-05-29d2t08.flac:cc9e31af62e6d218a3a72c0a06e8da15
bw86-05-29d2t09.flac:0ffecb2fccb808207aea816e14550219
bw86-05-29d2t10.flac:c5060b91148794cf95d677354ef0b186
bw86-05-29d2t11.flac:c6d7925c7ae6dec309f63a649c5d0958
bw86-05-29d2t12.flac:61e2861c4278188e4f002c8918b86eff
bw86-05-29d2t13.flac:e5fee83be262fc92d6bf92716c4c14d4
md5
608c7743a06316ca7d5cf527fe93ef19 *bw86-05-29d1t01.flac
20dc36888a0f65e4c0f30bb9469bc230 *bw86-05-29d1t02.flac
5deca7ef43af8b7a39670ac24b5b5b06 *bw86-05-29d1t03.flac
410adbafceada57205488e4da18e1f63 *bw86-05-29d1t04.flac
4ce4192fe1ceb78841d8fd33acc6f243 *bw86-05-29d1t05.flac
72873abcd918cae96c6023c40fdec92a *bw86-05-29d1t06.flac
46974acfea4212e5016fc27cb2cd0482 *bw86-05-29d2t01.flac
aefd85e9f58bbc38c4c189212eeec739 *bw86-05-29d2t02.flac
a786db15f9f9433334bf0e3bef9238b5 *bw86-05-29d2t03.flac
78b18865b11bdcce274bfb289096df66 *bw86-05-29d2t04.flac
9b98fb0a03c476510679a7f240c38e37 *bw86-05-29d2t05.flac
0222c504f08856e267e2cba6e2f635db *bw86-05-29d2t06.flac
f1b77831fa3a57d0f293607a739ecbc2 *bw86-05-29d2t07.flac
d25e0f1ff1f6cbd6f91f8f8dddbf1eb8 *bw86-05-29d2t08.flac
dfe0b56ed5fc0b94b24210adb0d29b6e *bw86-05-29d2t09.flac
9d8f79398c4a9dc882bd9a3986bde6b3 *bw86-05-29d2t10.flac
a41a732bc655b4d129f22dee8640cbe0 *bw86-05-29d2t11.flac
14a16e2514bbcefa573d8a80b0dae404 *bw86-05-29d2t12.flac
e13620d2941e840ff9486056a6af285e *bw86-05-29d2t13.flac

Comments
Add Comment
Other Sources (comments)
Bob Weir &... (4) flac24;source: sbd... (0) flac16source: sbd... (0)
Date User Comment
03/30/2010 cryptical17 This source sounds completely horrendous. I've obtained a few copies and it's almost completely unlistenable. Beware!