Browse Collections Artists Sources   Search Dates

Add Show    List Management    Help


Grateful Dead 05/03/79
Charlotte Coliseum, Charlotte, NC
Comments Add Comment    Source Collectors    Add to Collection    Add to Want List    History
Source # 83674 Other Sources
Entered by Matt Vernon
Checksums ffp , flac-md5
Disc Counts 2 / 3
Media Size
Date Circulated
Date Added
03/25/2007
03/25/2007
Source Summary flac16; Recording by Barry Glassberg: MOTB 0024:Source: Audience FOB Recording, 60 Feet back, DFC, 9 foot pole Media: Maxell UDXL II 90 Lineage: Nakamichi CM700's > Sony 158SD > MAC Transfer: MAC > Nakamichi DR-1 > Benchmark ADC-1 > AES > Sound Devices 722 > wav Mastering: WaveLab 5.0 iZotope Ozone 3 > CDWAV1.9 > FLAC (level 8) Taped by: B. Glassberg Transfer by: A. Egert Mastering by: B. Koucky 
  Archive
Source Information - Download Text | Download Zip
MotB Release: 0024/16bit
Release Date: March 26, 2007

Band: Grateful Dead
Date: 05/03/1979 - Thursday
Venue: Charlotte Coliseum
Location: Charlotte, NC

Source: Audience FOB Recording, 60 Feet back, DFC, 9 foot pole
Media: Maxell UDXL II 90
Lineage: Nakamichi CM700's > Sony 158SD > MAC
Transfer: MAC > Nakamichi DR-1 > Benchmark ADC-1 > AES > Sound Devices 722 > wav
Mastering: WaveLab 5.0 iZotope Ozone 3 > CDWAV1.9 > FLAC (level 8)

Taped by: B. Glassberg
Transfer by: A. Egert
Mastering by: B. Koucky

Disc 1 69:24
Set I
01 Tuning
02 The Promised Land
03 Brown Eyed Women
04 Phil's Disco Joke
05 Me And My Uncle >
06 Big River
07 Stagger Lee
08 Looks Like Rain
09 Row Jimmy
10 It's All Over Now
11 Deal

Disc 2 60:20
Set II
01 Tuning
02 Samson And Delilah
03 Tennessee Jed
04 Terrapin Station >
05 Playing In The Band >
06 Drums >

Disc 3 35:25
Set II cont:
01 Space >
02 Black Peter >
02 Not Fade Away >
04 Playing In The Band
05 Encore Call, Tuning
Encore
06 US Blues

Patch Info:
- No patches.

Notes:
- Anomaly @ 2:20 of Brown Eyed Women. Possible mic stand bump?


FLAC FINGERPRINTS:
gd1979-05-03.motb.0024.d1t01.flac:ebd81378292f33d3c6723e10aa1de893
gd1979-05-03.motb.0024.d1t02.flac:b097f318cecebfb99e03469e023b5e3d
gd1979-05-03.motb.0024.d1t03.flac:84f8f78611178bac48f710a6740cfd8c
gd1979-05-03.motb.0024.d1t04.flac:bbc44f476b560d83a8c172575f90c0b2
gd1979-05-03.motb.0024.d1t05.flac:5fc468cb765ccee001904347c57026ee
gd1979-05-03.motb.0024.d1t06.flac:ee0597ef456b6e73f066a6050f937f0c
gd1979-05-03.motb.0024.d1t07.flac:4f8399cfe9ad7cbbc8a5f65e95ad78ab
gd1979-05-03.motb.0024.d1t08.flac:507fa767291ca55021e2e38f350ffa18
gd1979-05-03.motb.0024.d1t09.flac:1d487007c8e753ad679eb4387816b395
gd1979-05-03.motb.0024.d1t10.flac:d8101a47992ca947b755b95e154194e3
gd1979-05-03.motb.0024.d1t11.flac:e8653edd2604b92cd02dce3426b07283
gd1979-05-03.motb.0024.d2t01.flac:121099dbc4d41d696421a14cbf17e770
gd1979-05-03.motb.0024.d2t02.flac:c3679999e9db9b0df3890271f7113439
gd1979-05-03.motb.0024.d2t03.flac:a956e8e439f4eee13f421e74b018aecf
gd1979-05-03.motb.0024.d2t04.flac:fd4512e47e706935070d8695271898cf
gd1979-05-03.motb.0024.d2t05.flac:73c5ea1c71cfbfa1607a9320efcd0417
gd1979-05-03.motb.0024.d2t06.flac:be8b6c4d227646217e8935d4cc607c11
gd1979-05-03.motb.0024.d3t01.flac:7479baba72c31118d339ed9875f9c4f7
gd1979-05-03.motb.0024.d3t02.flac:4dfe9c9a0ca84980112b50d3166891c7
gd1979-05-03.motb.0024.d3t03.flac:4e34f120058f805e42dc127d3b3e481d
gd1979-05-03.motb.0024.d3t04.flac:4fb5a9a60d994b108a26e38048b806f5
gd1979-05-03.motb.0024.d3t05.flac:a425e56dd05e5d0d66f549046667bcd4
gd1979-05-03.motb.0024.d3t06.flac:58fb1f9eb5cd891a82dddcff5a8b2a21

MD5 CHECKSUMS:
f6879d49f56bbd756c43118a3f47aafc *gd1979-05-03.motb.0024.d1t01.flac
e5df64611ce86ea25d50eb39ac854022 *gd1979-05-03.motb.0024.d1t02.flac
6a62157c293e6ea74a8b7201896935e5 *gd1979-05-03.motb.0024.d1t03.flac
cdd774439a5ed0b489e7c059da1fb71e *gd1979-05-03.motb.0024.d1t04.flac
8692285ee8e3f00f2026dfef4de6b67c *gd1979-05-03.motb.0024.d1t05.flac
5cd226d8a77f3907d1fa9f43d2acdd8a *gd1979-05-03.motb.0024.d1t06.flac
fdde08973b38332caa0d40507ec319c6 *gd1979-05-03.motb.0024.d1t07.flac
6cebd344c8e37c05e76afce524f78a17 *gd1979-05-03.motb.0024.d1t08.flac
903904642612044beb957f4277d319d0 *gd1979-05-03.motb.0024.d1t09.flac
8ef6507e97ee606bce4aa720c8baa3c8 *gd1979-05-03.motb.0024.d1t10.flac
0fbb878a8e0003c26c96b17d65932a32 *gd1979-05-03.motb.0024.d1t11.flac
90c8d7de2d19a6ab44932b3014085f31 *gd1979-05-03.motb.0024.d2t01.flac
8e2a67e8c20c35c5aa1095198ea3b1a6 *gd1979-05-03.motb.0024.d2t02.flac
6d843dbde4179cc71f717741c32f8212 *gd1979-05-03.motb.0024.d2t03.flac
e30e7e51add7ff6da3a55290c4b2ccec *gd1979-05-03.motb.0024.d2t04.flac
5fc102af4b86a8cbae66c2e48777047b *gd1979-05-03.motb.0024.d2t05.flac
64586cb99817916fabb7d369903c9e24 *gd1979-05-03.motb.0024.d2t06.flac
4504e8ae22c735fa0e48eae33311248d *gd1979-05-03.motb.0024.d3t01.flac
776b7626115622756d2ddb292f2613ca *gd1979-05-03.motb.0024.d3t02.flac
c3a75aa1268bdd37888429487dfca7eb *gd1979-05-03.motb.0024.d3t03.flac
8d5329e82c6a10468fcd08a2ef6a40d9 *gd1979-05-03.motb.0024.d3t04.flac
399e2033826f2b63c97e3ccb138aee4d *gd1979-05-03.motb.0024.d3t05.flac
c17aa48290bf0641898f4000856e0f68 *gd1979-05-03.motb.0024.d3t06.flac

SHNTOOL OUTPUT:
    length     expanded size   cdr  WAVE problems filename
     1:54.41       20206076    ---   --   ---xx   gd1979-05-03.motb.0024.d1t01.flac
     7:46.37       82289468    ---   --   ---xx   gd1979-05-03.motb.0024.d1t02.flac
     6:12.43       65721980    ---   --   ---xx   gd1979-05-03.motb.0024.d1t03.flac
     1:17.07       13599308    ---   --   ---xx   gd1979-05-03.motb.0024.d1t04.flac
     3:03.06       32295356    ---   --   ---xx   gd1979-05-03.motb.0024.d1t05.flac
     7:19.44       77543132    ---   --   ---xx   gd1979-05-03.motb.0024.d1t06.flac
     7:38.72       80960588    ---   --   ---xx   gd1979-05-03.motb.0024.d1t07.flac
     9:24.69       99651932    ---   --   ---xx   gd1979-05-03.motb.0024.d1t08.flac
    10:50.71      114827036    ---   --   ---xx   gd1979-05-03.motb.0024.d1t09.flac
     7:59.42       84594428    ---   --   ---xx   gd1979-05-03.motb.0024.d1t10.flac
     5:56.20       62845484    ---   --   ---xx   gd1979-05-03.motb.0024.d1t11.flac
     1:33.01       16407596    ---   --   ---xx   gd1979-05-03.motb.0024.d2t01.flac
     7:59.67       84653228    ---   --   ---xx   gd1979-05-03.motb.0024.d2t02.flac
    10:25.74      110424092    ---   --   ---xx   gd1979-05-03.motb.0024.d2t03.flac
    11:39.54      123430652    ---   --   ---xx   gd1979-05-03.motb.0024.d2t04.flac
    17:11.27      181931948    ---   --   ---xx   gd1979-05-03.motb.0024.d2t05.flac
    11:30.60      121857164    ---   --   ---xx   gd1979-05-03.motb.0024.d2t06.flac
     2:44.73       29101340    ---   --   ---xx   gd1979-05-03.motb.0024.d3t01.flac
     9:34.07      101270108    ---   --   ---xx   gd1979-05-03.motb.0024.d3t02.flac
     9:28.52      100317548    ---   --   ---xx   gd1979-05-03.motb.0024.d3t03.flac
     6:43.01       71091596    ---   --   ---xx   gd1979-05-03.motb.0024.d3t04.flac
     1:27.33       15424460    ---   --   ---xx   gd1979-05-03.motb.0024.d3t05.flac
     5:27.20       57729884    ---   --   ---xx   gd1979-05-03.motb.0024.d3t06.flac
   165:10.21     1748174404 B                     (totals for 23 files, 0.5961 overall compression ratio)

Show Checksums
ffp
gd1979-05-03.motb.0024.d1t01.flac:ebd81378292f33d3c6723e10aa1de893
gd1979-05-03.motb.0024.d1t02.flac:b097f318cecebfb99e03469e023b5e3d
gd1979-05-03.motb.0024.d1t03.flac:84f8f78611178bac48f710a6740cfd8c
gd1979-05-03.motb.0024.d1t04.flac:bbc44f476b560d83a8c172575f90c0b2
gd1979-05-03.motb.0024.d1t05.flac:5fc468cb765ccee001904347c57026ee
gd1979-05-03.motb.0024.d1t06.flac:ee0597ef456b6e73f066a6050f937f0c
gd1979-05-03.motb.0024.d1t07.flac:4f8399cfe9ad7cbbc8a5f65e95ad78ab
gd1979-05-03.motb.0024.d1t08.flac:507fa767291ca55021e2e38f350ffa18
gd1979-05-03.motb.0024.d1t09.flac:1d487007c8e753ad679eb4387816b395
gd1979-05-03.motb.0024.d1t10.flac:d8101a47992ca947b755b95e154194e3
gd1979-05-03.motb.0024.d1t11.flac:e8653edd2604b92cd02dce3426b07283
gd1979-05-03.motb.0024.d2t01.flac:121099dbc4d41d696421a14cbf17e770
gd1979-05-03.motb.0024.d2t02.flac:c3679999e9db9b0df3890271f7113439
gd1979-05-03.motb.0024.d2t03.flac:a956e8e439f4eee13f421e74b018aecf
gd1979-05-03.motb.0024.d2t04.flac:fd4512e47e706935070d8695271898cf
gd1979-05-03.motb.0024.d2t05.flac:73c5ea1c71cfbfa1607a9320efcd0417
gd1979-05-03.motb.0024.d2t06.flac:be8b6c4d227646217e8935d4cc607c11
gd1979-05-03.motb.0024.d3t01.flac:7479baba72c31118d339ed9875f9c4f7
gd1979-05-03.motb.0024.d3t02.flac:4dfe9c9a0ca84980112b50d3166891c7
gd1979-05-03.motb.0024.d3t03.flac:4e34f120058f805e42dc127d3b3e481d
gd1979-05-03.motb.0024.d3t04.flac:4fb5a9a60d994b108a26e38048b806f5
gd1979-05-03.motb.0024.d3t05.flac:a425e56dd05e5d0d66f549046667bcd4
gd1979-05-03.motb.0024.d3t06.flac:58fb1f9eb5cd891a82dddcff5a8b2a21
flac-md5
f6879d49f56bbd756c43118a3f47aafc *gd1979-05-03.motb.0024.d1t01.flac
e5df64611ce86ea25d50eb39ac854022 *gd1979-05-03.motb.0024.d1t02.flac
6a62157c293e6ea74a8b7201896935e5 *gd1979-05-03.motb.0024.d1t03.flac
cdd774439a5ed0b489e7c059da1fb71e *gd1979-05-03.motb.0024.d1t04.flac
8692285ee8e3f00f2026dfef4de6b67c *gd1979-05-03.motb.0024.d1t05.flac
5cd226d8a77f3907d1fa9f43d2acdd8a *gd1979-05-03.motb.0024.d1t06.flac
fdde08973b38332caa0d40507ec319c6 *gd1979-05-03.motb.0024.d1t07.flac
6cebd344c8e37c05e76afce524f78a17 *gd1979-05-03.motb.0024.d1t08.flac
903904642612044beb957f4277d319d0 *gd1979-05-03.motb.0024.d1t09.flac
8ef6507e97ee606bce4aa720c8baa3c8 *gd1979-05-03.motb.0024.d1t10.flac
0fbb878a8e0003c26c96b17d65932a32 *gd1979-05-03.motb.0024.d1t11.flac
90c8d7de2d19a6ab44932b3014085f31 *gd1979-05-03.motb.0024.d2t01.flac
8e2a67e8c20c35c5aa1095198ea3b1a6 *gd1979-05-03.motb.0024.d2t02.flac
6d843dbde4179cc71f717741c32f8212 *gd1979-05-03.motb.0024.d2t03.flac
e30e7e51add7ff6da3a55290c4b2ccec *gd1979-05-03.motb.0024.d2t04.flac
5fc102af4b86a8cbae66c2e48777047b *gd1979-05-03.motb.0024.d2t05.flac
64586cb99817916fabb7d369903c9e24 *gd1979-05-03.motb.0024.d2t06.flac
4504e8ae22c735fa0e48eae33311248d *gd1979-05-03.motb.0024.d3t01.flac
776b7626115622756d2ddb292f2613ca *gd1979-05-03.motb.0024.d3t02.flac
c3a75aa1268bdd37888429487dfca7eb *gd1979-05-03.motb.0024.d3t03.flac
8d5329e82c6a10468fcd08a2ef6a40d9 *gd1979-05-03.motb.0024.d3t04.flac
399e2033826f2b63c97e3ccb138aee4d *gd1979-05-03.motb.0024.d3t05.flac
c17aa48290bf0641898f4000856e0f68 *gd1979-05-03.motb.0024.d3t06.flac

Comments
Add Comment
Other Sources (comments)
Recording by Barry... (1) flac16; Recording by... (0)
Date User Comment