Browse Collections Artists Sources   Search Dates

Add Show    List Management    Help


Grateful Dead 10/28/90
The Zenith, Paris, France
Comments Add Comment    Source Collectors    Add to Collection    Add to Want List    History
Source # 83696 Other Sources
Entered by Matt Vernon
Checksums ffp , flac-md5
Disc Counts 2 / 3
Media Size
Date Circulated
Date Added
03/25/2007
03/25/2007
Source Summary flac16; AUD Source: Nakamichi CM-300's with CP-4 shotgun capsules > Sony TC-D5M > Maxell MX-90/100, with no Dolby. Set up in the balcony taper section, a few rows from the edge. Mics on stand aprx 5-feet high, aimed at stacks and angled down slightly. Transfer: MAC > Sony TC-D5M (no Dolby) > Marantz CDR-500 > CDR > EAC > WAV > Soundforge > CD-Wave > TLH v.1.0.0.72 (for SBE-OK, FLAC compression, and checksums) > FLAC, March 2007. Taped and transferred by Andrew F 
  Archive
Source Information - Download Text | Download Zip
GRATEFUL DEAD
Le Zenith
Paris France
10-28-1990

Disc One (70:30)

01 crowd & tuning
02 Touch of Grey >
03 Walkin' Blues
04 Candyman
05 Box of Rain
06 Mexicali Blues >
07 Maggie's Farm
08 Althea
09 Cassidy
10 Tennessee Jed
11 Stander on the Mountain
-- set break --

Disc Two (48:21)

01 Victim or the Crime >
02 Eyes of the World >
03 Estimated Prophet >
04 Uncle John's Band >
05 Drums >

Disc Three (42:27)

01 Sp//ace >
02 The Other One >
03 Wharf Rat >
04 Sugar Magnolia
-- encore --
05 crowd & tuning
06 Knockin' on Heaven's Door

AUD Source: Nakamichi CM-300's with CP-4 shotgun capsules > Sony TC-D5M >
Maxell MX-90/100, with no Dolby. Set up in the balcony taper section, a
few rows from the edge. Mics on stand aprx 5-feet high, aimed at stacks
and angled down slightly.

Transfer: MAC > Sony TC-D5M (no Dolby) > Marantz CDR-500 > CDR > EAC >
WAV > Soundforge > CD-Wave > TLH v.1.0.0.72 (for SBE-OK, FLAC compression,
and checksums) > FLAC, March 2007. Taped and transferred by Andrew F.

Notes:
- The balcony was close to the stage, so the sound is decent.
- Watch out for some loud distortion during Space.
- The tape-flip occurs at 03:55.356 in Space, which I've mended together.
- The break between Disc Two and Disc Three is seamless.
- Soundforge was used to make fades and clean up around the tape flips.

md5

77943edc8dcb52addaff0c9b08562eaa *gd1990-10-28d1t01.flac
ffa32e42848f63df46c6060ea52915d6 *gd1990-10-28d1t02.flac
b7874412e24d3a28549f3d9e65e6c31a *gd1990-10-28d1t03.flac
f2dc4dcdfbaaad53dc5e9408ddce1270 *gd1990-10-28d1t04.flac
a8cdccd96eb50f1322a90847f1d132d8 *gd1990-10-28d1t05.flac
84a03585f90ee549194e00dcc55a239c *gd1990-10-28d1t06.flac
dbd5defde3658aa7fc3ee0e6105ef731 *gd1990-10-28d1t07.flac
9125d51a654705083812668a4a4285ca *gd1990-10-28d1t08.flac
35947236f5277edc488b680b5cae3b1e *gd1990-10-28d1t09.flac
c69b706ae490cb4fb0bc3c1d8a0aa480 *gd1990-10-28d1t10.flac
b3002b1d7921a98b7ebb97809b520aff *gd1990-10-28d1t11.flac
33cc933b6c7cd284d090d3558d9692ff *gd1990-10-28d2t01.flac
2edc584632975d73854a9dd6c9aa78c2 *gd1990-10-28d2t02.flac
6dcd7fe3fb7f93c91b2e93a7a5ec1969 *gd1990-10-28d2t03.flac
26c159e3bbbd6fb2ad836ffd962ef02e *gd1990-10-28d2t04.flac
e5f59cec3c379ef5c14b1de79d3e486c *gd1990-10-28d2t05.flac
621882575f35ebb46de85b979d56881e *gd1990-10-28d3t01.flac
5e52137ed3725f9f9f27e21435890ba7 *gd1990-10-28d3t02.flac
4fd44721ac1e0d30e7db9dfab6be2256 *gd1990-10-28d3t03.flac
1056832aba8793d3df5b3f8862860274 *gd1990-10-28d3t04.flac
9a73f7b7b972a43f4f9da4e2a7030221 *gd1990-10-28d3t05.flac
fe1be30cf5537ea7b57c27e1459cd93f *gd1990-10-28d3t06.flac

ffp

gd1990-10-28d1t01.flac:a428a1d80a18f6ff52ec024048303b54
gd1990-10-28d1t02.flac:7e3cf3c273235bea85d2499213d71064
gd1990-10-28d1t03.flac:a579fe94e460730f86542d74751d0677
gd1990-10-28d1t04.flac:87733d1729365bf4f0359c66554ee9fd
gd1990-10-28d1t05.flac:caec3d074e04b009d8ce62d83996dc58
gd1990-10-28d1t06.flac:c45bf0b030e2ac95c1b04a3eb0d7df70
gd1990-10-28d1t07.flac:72d87fdfdc74410281d2532060e52ee1
gd1990-10-28d1t08.flac:9632e6a82c7fac2510bbdf9abf584b4b
gd1990-10-28d1t09.flac:ec339d2cc93e48cc3b5c9613e1df2fbd
gd1990-10-28d1t10.flac:c6855ae470605c0c2594091123c8a72f
gd1990-10-28d1t11.flac:5318396519df835fda0b2ff7c8b0eaf0
gd1990-10-28d2t01.flac:da72dcf24d6cb1127e54e5586645acdc
gd1990-10-28d2t02.flac:f9758e99d8ca132ee7e1f1e2eb98dac5
gd1990-10-28d2t03.flac:0e9e9b619b4579ec926766d3fe0be4ca
gd1990-10-28d2t04.flac:48eade3d22a7f2dc8ca46606a1d3d550
gd1990-10-28d2t05.flac:c65f642dcc511ef5f0cc94707baaec87
gd1990-10-28d3t01.flac:6fbd45fa30e9b0bd67faadc136dc94b7
gd1990-10-28d3t02.flac:1300dc3952935776159cfccf80e09430
gd1990-10-28d3t03.flac:8fc2c556695dba2f4a8798a217cacca8
gd1990-10-28d3t04.flac:6d368b4d65784b794a1265f6da4e1e06
gd1990-10-28d3t05.flac:8bedb22e4aa4a4397a7290f586985124
gd1990-10-28d3t06.flac:8c72abdceb3b75249f60461bd1042e76

shntool

    length     expanded size   cdr  WAVE problems filename
     0:56.55       10007804    ---   --   ---xx   gd1990-10-28d1t01.flac
     6:36.09       69875612    ---   --   ---xx   gd1990-10-28d1t02.flac
     8:26.04       89267852    ---   --   ---xx   gd1990-10-28d1t03.flac
     8:15.37       87405068    ---   --   ---xx   gd1990-10-28d1t04.flac
     5:41.49       60267692    ---   --   ---xx   gd1990-10-28d1t05.flac
     5:19.46       56379836    ---   --   ---xx   gd1990-10-28d1t06.flac
     5:17.10       55942364    ---   --   ---xx   gd1990-10-28d1t07.flac
     7:46.31       82275356    ---   --   ---xx   gd1990-10-28d1t08.flac
     6:46.64       71768972    ---   --   ---xx   gd1990-10-28d1t09.flac
     8:14.69       87303932    ---   --   ---xx   gd1990-10-28d1t10.flac
     7:09.44       75779132    ---   --   ---xx   gd1990-10-28d1t11.flac
     8:52.70       94009484    ---   --   ---xx   gd1990-10-28d2t01.flac
    10:35.66      112169276    ---   --   ---xx   gd1990-10-28d2t02.flac
    10:10.61      107747516    ---   --   ---xx   gd1990-10-28d2t03.flac
     8:55.08       94392860    ---   --   ---xx   gd1990-10-28d2t04.flac
     9:46.30      103441004    ---   --   ---xx   gd1990-10-28d2t05.flac
     8:53.05       94033004    ---   --   ---xx   gd1990-10-28d3t01.flac
     7:36.18       80480780    ---   --   ---xx   gd1990-10-28d3t02.flac
     8:26.38       89347820    ---   --   ---xx   gd1990-10-28d3t03.flac
     8:19.38       88113020    ---   --   ---xx   gd1990-10-28d3t04.flac
     1:11.28       12590300    ---   --   ---xx   gd1990-10-28d3t05.flac
     8:00.69       84834332    ---   --   ---xx   gd1990-10-28d3t06.flac
   161:19.24     1707433016 B                     (totals for 22 files, 0.6188 overall compression ratio)

There were no sector boundary errors.
Show Checksums
ffp
gd1990-10-28d1t01.flac:a428a1d80a18f6ff52ec024048303b54
gd1990-10-28d1t02.flac:7e3cf3c273235bea85d2499213d71064
gd1990-10-28d1t03.flac:a579fe94e460730f86542d74751d0677
gd1990-10-28d1t04.flac:87733d1729365bf4f0359c66554ee9fd
gd1990-10-28d1t05.flac:caec3d074e04b009d8ce62d83996dc58
gd1990-10-28d1t06.flac:c45bf0b030e2ac95c1b04a3eb0d7df70
gd1990-10-28d1t07.flac:72d87fdfdc74410281d2532060e52ee1
gd1990-10-28d1t08.flac:9632e6a82c7fac2510bbdf9abf584b4b
gd1990-10-28d1t09.flac:ec339d2cc93e48cc3b5c9613e1df2fbd
gd1990-10-28d1t10.flac:c6855ae470605c0c2594091123c8a72f
gd1990-10-28d1t11.flac:5318396519df835fda0b2ff7c8b0eaf0
gd1990-10-28d2t01.flac:da72dcf24d6cb1127e54e5586645acdc
gd1990-10-28d2t02.flac:f9758e99d8ca132ee7e1f1e2eb98dac5
gd1990-10-28d2t03.flac:0e9e9b619b4579ec926766d3fe0be4ca
gd1990-10-28d2t04.flac:48eade3d22a7f2dc8ca46606a1d3d550
gd1990-10-28d2t05.flac:c65f642dcc511ef5f0cc94707baaec87
gd1990-10-28d3t01.flac:6fbd45fa30e9b0bd67faadc136dc94b7
gd1990-10-28d3t02.flac:1300dc3952935776159cfccf80e09430
gd1990-10-28d3t03.flac:8fc2c556695dba2f4a8798a217cacca8
gd1990-10-28d3t04.flac:6d368b4d65784b794a1265f6da4e1e06
gd1990-10-28d3t05.flac:8bedb22e4aa4a4397a7290f586985124
gd1990-10-28d3t06.flac:8c72abdceb3b75249f60461bd1042e76
flac-md5
77943edc8dcb52addaff0c9b08562eaa *gd1990-10-28d1t01.flac
ffa32e42848f63df46c6060ea52915d6 *gd1990-10-28d1t02.flac
b7874412e24d3a28549f3d9e65e6c31a *gd1990-10-28d1t03.flac
f2dc4dcdfbaaad53dc5e9408ddce1270 *gd1990-10-28d1t04.flac
a8cdccd96eb50f1322a90847f1d132d8 *gd1990-10-28d1t05.flac
84a03585f90ee549194e00dcc55a239c *gd1990-10-28d1t06.flac
dbd5defde3658aa7fc3ee0e6105ef731 *gd1990-10-28d1t07.flac
9125d51a654705083812668a4a4285ca *gd1990-10-28d1t08.flac
35947236f5277edc488b680b5cae3b1e *gd1990-10-28d1t09.flac
c69b706ae490cb4fb0bc3c1d8a0aa480 *gd1990-10-28d1t10.flac
b3002b1d7921a98b7ebb97809b520aff *gd1990-10-28d1t11.flac
33cc933b6c7cd284d090d3558d9692ff *gd1990-10-28d2t01.flac
2edc584632975d73854a9dd6c9aa78c2 *gd1990-10-28d2t02.flac
6dcd7fe3fb7f93c91b2e93a7a5ec1969 *gd1990-10-28d2t03.flac
26c159e3bbbd6fb2ad836ffd962ef02e *gd1990-10-28d2t04.flac
e5f59cec3c379ef5c14b1de79d3e486c *gd1990-10-28d2t05.flac
621882575f35ebb46de85b979d56881e *gd1990-10-28d3t01.flac
5e52137ed3725f9f9f27e21435890ba7 *gd1990-10-28d3t02.flac
4fd44721ac1e0d30e7db9dfab6be2256 *gd1990-10-28d3t03.flac
1056832aba8793d3df5b3f8862860274 *gd1990-10-28d3t04.flac
9a73f7b7b972a43f4f9da4e2a7030221 *gd1990-10-28d3t05.flac
fe1be30cf5537ea7b57c27e1459cd93f *gd1990-10-28d3t06.flac

Comments
Add Comment
Other Sources (comments)
SBD> DATx3; Conversion:... (1) flac16; Source:... (0) flac16; RECORDING... (0) flac16; Master... (0) flac24; Master... (0) flac16/48kHz;... (0) flac24/96 ... (0) flac16; Recording... (0)
Date User Comment