Browse Collections Artists Sources   Search Dates

Add Show    List Management    Help


Grateful Dead 04/17/87
Irvine Meadows, Irvine, CA
Comments Add Comment    Source Collectors    Add to Collection    Add to Want List    History
Source # 83731 Other Sources
Entered by Matt Vernon
Checksums ffp , flac-md5
Disc Counts 2 / 2
Media Size
Date Circulated
Date Added
03/27/2007
03/27/2007
Source Summary flac16; Recording Info: SBD -> Cassette Master (Maxell MX90/Sony D5) Transfer Info: Cassette Master (Tascam 122mkII) -> Apogee MiniMe (24bit/48k) -> Samplitude Professional v8.01 -> FLAC/16 All Transfers and Mastering By Charlie Miller 
  Archive
Source Information - Download Text | Download Zip
Grateful Dead - April 17, 1987
Irvine Meadows - Laguna Hills, CA

Recording Info:
SBD -> Cassette Master (Maxell MX90/Sony D5)

Transfer Info:
Cassette Master (Tascam 122mkII) -> Apogee MiniMe (24bit/48k) ->
Samplitude Professional v8.01 -> FLAC/16
(2 Discs Audio / 2 Discs FLAC)

All Transfers and Mastering By Charlie Miller
[email protected]
February 7, 2007

Patch Info:
Schoeps CMC3/MK4 -> PCM -> Dat -> CD supplies:
Drums (6:55 - 7:12)

Notes:
-- Disc change is seamless
-- Tapes were labeled "Broadcast Mix"
-- Thanks to Paul Scotton and Joani Walker for the tapes

Set 1:
d1t01 - Cold Rain And Snow
d1t02 - Little Red Rooster
d1t03 - Friend Of The Devil
d1t04 - It's All Over Now
d1t05 - When Push Comes To Shove
d1t06 - Desolation Row ->
d1t07 - Deal

Set 2:
d1t08 - Touch Of Grey ->
d1t09 - Samson And Delilah
d1t10 - Ship Of Fools
d2t01 - Estimated Prophet ->
d2t02 - Eyes Of The World ->
d2t03 - Drums ->
d2t04 - Space ->
d2t05 - The Wheel ->
d2t06 - Truckin' ->
d2t07 - Stella Blue ->
d2t08 - Around And Around ->
d2t09 - Good Lovin'

Encore:
d2t10 - The Mighty Quinn (Quinn The Eskimo)


SHNTOOL OUTPUT:
    length     expanded size   cdr  WAVE problems filename
     5:57.32       63050108    ---   --   -----   gd87-04-17d1t01.wav
     8:40.28       91793900    ---   --   -----   gd87-04-17d1t02.wav
     8:57.05       94738604    ---   --   -----   gd87-04-17d1t03.wav
     7:27.64       79001372    ---   --   -----   gd87-04-17d1t04.wav
     5:15.33       55643660    ---   --   -----   gd87-04-17d1t05.wav
    10:15.25      108544844    ---   --   -----   gd87-04-17d1t06.wav
     7:04.46       74901836    ---   --   -----   gd87-04-17d1t07.wav
     6:47.73       71966540    ---   --   -----   gd87-04-17d1t08.wav
     6:38.09       70228412    ---   --   -----   gd87-04-17d1t09.wav
     9:20.67       98941628    ---   --   -----   gd87-04-17d1t10.wav
     9:45.50      103311644    ---   --   -----   gd87-04-17d2t01.wav
     7:49.67       82889228    ---   --   -----   gd87-04-17d2t02.wav
     7:19.21       77489036    ---   --   -----   gd87-04-17d2t03.wav
     6:17.59       66641612    ---   --   -----   gd87-04-17d2t04.wav
     4:28.56       47406956    ---   --   -----   gd87-04-17d2t05.wav
     7:05.06       74984156    ---   --   -----   gd87-04-17d2t06.wav
     8:27.01       89437196    ---   --   -----   gd87-04-17d2t07.wav
     3:47.53       40167500    ---   --   -----   gd87-04-17d2t08.wav
     9:22.24       99193292    ---   --   -----   gd87-04-17d2t09.wav
     4:44.42       50196428    ---   --   -----   gd87-04-17d2t10.wav
   145:33.11     1540527952 B                     (totals for 20 files)
Show Checksums
ffp
gd87-04-17d1t01.flac:6d4cb5403bbe4062e17e527f892d7f99
gd87-04-17d1t02.flac:82dec1efe9db669380c93b80a7dab298
gd87-04-17d1t03.flac:599cf039828acc1a009a57cbaad11268
gd87-04-17d1t04.flac:c3bba2c80d424fc08b1f04a0fe324bd8
gd87-04-17d1t05.flac:70881bf344feb4e9675694b21c540386
gd87-04-17d1t06.flac:bc4276de8247eb3079d63cbb20565f90
gd87-04-17d1t07.flac:13e19e4959a33b7ee8d4c7fe65c11df1
gd87-04-17d1t08.flac:8af28070163620e41cea28df00a2e900
gd87-04-17d1t09.flac:33754463ad0985e727e66fb870344b66
gd87-04-17d1t10.flac:a04bae1fcd2ac932d1cfef9e78266f26
gd87-04-17d2t01.flac:6ffd25775a39e48518c8987d76dcbcc2
gd87-04-17d2t02.flac:e0132653341afe211db925fafb791ec0
gd87-04-17d2t03.flac:9daa88b830425f86c75c25dafe9ca09b
gd87-04-17d2t04.flac:4390516d986513eb5166396638f595f5
gd87-04-17d2t05.flac:6b8103e27832fb6a89219e8d409e7998
gd87-04-17d2t06.flac:e54102c6d403b9cdc47cfc27923d7a02
gd87-04-17d2t07.flac:d09c48380001348aa28a670a3e4afc59
gd87-04-17d2t08.flac:8902cfcc1d7839bfbc1f41d0d6728e2e
gd87-04-17d2t09.flac:58c4fce93aacdba0f2d90fd7a8d0d869
gd87-04-17d2t10.flac:7b91303860d2e66e6731a1711ce4fb89
flac-md5
bce32edac64c7a9ebf1ed2477dd427d6 *gd87-04-17d1t01.flac
158262fd631c8068395c243e7dc4f95c *gd87-04-17d1t02.flac
09d58c99733f0def11e8c1a327147823 *gd87-04-17d1t03.flac
38b2c3f0297b41c19db9f60b8638af88 *gd87-04-17d1t04.flac
d770196b2565aafa56d336046f6e0902 *gd87-04-17d1t05.flac
4b7600f06664d8aa9d13a32a12232478 *gd87-04-17d1t06.flac
1dcc4b570e8d9190c5054b10557b5071 *gd87-04-17d1t07.flac
58ea124cc3a5753ceeaaa555d04f0900 *gd87-04-17d1t08.flac
a986189652509c62f9c97434339ba36b *gd87-04-17d1t09.flac
88b4b2ddbeb36f6b901cefc2377ae588 *gd87-04-17d1t10.flac
6c1a79ed168ff9338762308f50b46727 *gd87-04-17d2t01.flac
eb387c104c5bffdc51bf99641b5276b3 *gd87-04-17d2t02.flac
b4f7001742934daf05603ef9706585b6 *gd87-04-17d2t03.flac
6cbd81f880d22640da7a231f318194b2 *gd87-04-17d2t04.flac
777b04a46004ad1be934b22e7cd813a8 *gd87-04-17d2t05.flac
ca1cd8a4fc634593ffc11565ba068723 *gd87-04-17d2t06.flac
1288d12f35567f88a13ea4fc3d7b265c *gd87-04-17d2t07.flac
5235da9e91951def1da6389ecc475be8 *gd87-04-17d2t08.flac
5038bfb419df7736c19bf69ec30b33a3 *gd87-04-17d2t09.flac
1aeb81deee029c12d31ceccc9018fd39 *gd87-04-17d2t10.flac

Comments
Add Comment
Other Sources (comments)
AUD>PCM>DAT>CDR; Schoeps... (0) Master Soundboard Casette >... (1) flac16; MAC;... (0) flac24; Recording... (0) flac16; Recording... (0)
Date User Comment