Browse Collections Artists Sources   Search Dates

Add Show    List Management    Help


Grateful Dead 04/18/87
Irvine Meadows, Irvine, CA
Comments Add Comment    Source Collectors    Add to Collection    Add to Want List    History
Source # 83732 Other Sources
Entered by Matt Vernon
Checksums ffp , flac-md5
Disc Counts 2 / 2
Media Size
Date Circulated
Date Added
03/27/2007
03/27/2007
Source Summary flac16; Recording Info: SBD -> Cassette Master (Maxell MX90/Sony D5) Transfer Info: Cassette Master (Tascam 122mkII) -> Apogee MiniMe (24bit/48k) -> Samplitude Professional v8.01 -> FLAC/16 All Transfers and Mastering By Charlie Miller 
  Archive
Source Information - Download Text | Download Zip
Grateful Dead - April 18, 1987
Irvine Meadows - Laguna Hills, CA

Recording Info:
SBD -> Cassette Master (Maxell MX90/Sony D5)

Transfer Info:
Cassette Master (Tascam 122mkII) -> Apogee MiniMe (24bit/48k) ->
Samplitude Professional v8.01 -> FLAC/16
(2 Discs Audio / 2 Discs FLAC)

All Transfers and Mastering By Charlie Miller
[email protected]
February 15, 2007

Patch Info:
Schoeps CMC4/MK4 -> PCM -> Dat -> CD supplies:
Drums (last 9 seconds)

Notes:
-- Tapes were labeled "Broadcast Mix"
-- Thanks to Paul Scotton and Joani Walker for the tapes
-- They never finished Morning Dew

Set 1:
d1t01 - Tuning
d1t02 - Hell In A Bucket ->
d1t03 - Sugaree
d1t04 - Me And My Uncle ->
d1t05 - Mexicali Blues
d1t06 - West L.A. Fadeaway
d1t07 - Far From Me
d1t08 - Row Jimmy
d1t09 - Let It Grow ->
d1t10 - Don't Ease Me In

Set 2:
d2t01 - Iko Iko ->
d2t02 - Playing In The Band ->
d2t03 - Terrapin Station ->
d2t04 - Drums ->
d2t05 - Space ->
d2t06 - Gimme Some Lovin' ->
d2t07 - Morning Dew ->
d2t08 - Throwing Stones ->
d2t09 - Turn On Your Lovelight

Encore:
d2t10 - Black Muddy River


SHNTOOL OUTPUT:
    length     expanded size   cdr  WAVE problems filename
     1:08.53       12119900    ---   --   -----   gd87-04-18d1t01.wav
     5:39.59       59938412    ---   --   -----   gd87-04-18d1t02.wav
    10:11.35      107862764    ---   --   -----   gd87-04-18d1t03.wav
     3:01.45       32034284    ---   --   -----   gd87-04-18d1t04.wav
     5:20.73       56619740    ---   --   -----   gd87-04-18d1t05.wav
     7:44.56       81981356    ---   --   -----   gd87-04-18d1t06.wav
     4:52.56       51640556    ---   --   -----   gd87-04-18d1t07.wav
    13:08.25      139062044    ---   --   -----   gd87-04-18d1t08.wav
    12:14.39      129569372    ---   --   -----   gd87-04-18d1t09.wav
     3:33.69       37735532    ---   --   -----   gd87-04-18d1t10.wav
     6:34.16       69539276    ---   --   -----   gd87-04-18d2t01.wav
     7:33.36       79993916    ---   --   -----   gd87-04-18d2t02.wav
    11:50.52      125366348    ---   --   -----   gd87-04-18d2t03.wav
    10:02.04      106202252    ---   --   -----   gd87-04-18d2t04.wav
     6:23.64       67711772    ---   --   -----   gd87-04-18d2t05.wav
     4:55.61       52181516    ---   --   -----   gd87-04-18d2t06.wav
     9:44.18      103059980    ---   --   -----   gd87-04-18d2t07.wav
     8:31.66       90295676    ---   --   -----   gd87-04-18d2t08.wav
     6:54.65       73182524    ---   --   -----   gd87-04-18d2t09.wav
     6:45.50       71559644    ---   --   -----   gd87-04-18d2t10.wav
   146:13.42     1547656864 B                     (totals for 20 files)
Show Checksums
ffp
gd87-04-18d1t01.flac:cd7071e04f9e5e9d665e12841ee87723
gd87-04-18d1t02.flac:3af0d669bd27757313562d3e8b57998f
gd87-04-18d1t03.flac:b5dddb76e513e90fc7165a528eaed731
gd87-04-18d1t04.flac:543ecc3f27ddcb0c4c151e6756b4ca94
gd87-04-18d1t05.flac:389cd99f81bc8f11048c22c35bb9f290
gd87-04-18d1t06.flac:ced682ba795eaf857d6e80215cd93d5a
gd87-04-18d1t07.flac:767cba8886a285ec20bd6f6622b3e14f
gd87-04-18d1t08.flac:e419a3304eb70502758072e1c7b83855
gd87-04-18d1t09.flac:7af412b79d0fbe9a89c203c42bbb4adc
gd87-04-18d1t10.flac:0fe3fca6361054f01ac093f3178e411d
gd87-04-18d2t01.flac:062ff72c3d31f31ad829e80172eb57d7
gd87-04-18d2t02.flac:81bd45a93fbfba596e12785b61cef770
gd87-04-18d2t03.flac:eb457fea592c67e19dab242eea3d45b0
gd87-04-18d2t04.flac:9ee353123d8b0225b42b6b90377d1649
gd87-04-18d2t05.flac:74e0a6bf714e57fb09d770df6c3089eb
gd87-04-18d2t06.flac:84b78a3123b5a1514d07afaa3811294f
gd87-04-18d2t07.flac:b9688ea0be526243ddb6cbf470c97a6a
gd87-04-18d2t08.flac:9a9ac905d55440ec616877cd23965809
gd87-04-18d2t09.flac:49d111f306b878ec600dedeb397a9e26
gd87-04-18d2t10.flac:281664afb82c2f88e04dbc8859c22f1a
flac-md5
b707e3e035e0bcbfe3deddb5a72eb391 *gd87-04-18d1t01.flac
0013da349db8e43bc254bcd3b7a0c2fe *gd87-04-18d1t02.flac
d158927e2fef1d5990554b308b5391a4 *gd87-04-18d1t03.flac
c58e037b0e4c1c5b5940f1c78f1d247e *gd87-04-18d1t04.flac
6d815e7c7584f6b964073712c563c2e4 *gd87-04-18d1t05.flac
2dd48ecc0d0c59e8c6d04ed1a5b326ec *gd87-04-18d1t06.flac
d6190ba6933c0c544759c63cfc47f549 *gd87-04-18d1t07.flac
5e278ddfac4f027ec3e6c6ec849f3353 *gd87-04-18d1t08.flac
3d4950a4da18f66ffcecb3f5d77e064a *gd87-04-18d1t09.flac
7917136d64d03df2a6ed31c67c7f44a3 *gd87-04-18d1t10.flac
a9056d7d42affd57ebdb1ca6710ec20a *gd87-04-18d2t01.flac
e648692fc140a05687fa2f574da22718 *gd87-04-18d2t02.flac
051499cca622efb1ee5b2f1bb5c2bb0a *gd87-04-18d2t03.flac
5634e4560fd42170f68ac449020339bc *gd87-04-18d2t04.flac
60004aa3cfafd031d5f3c27389315b03 *gd87-04-18d2t05.flac
872fd1e68935ea92ae2b793419bd6eda *gd87-04-18d2t06.flac
3a7beb465bf3a09afb02380cc7a736e4 *gd87-04-18d2t07.flac
35c589cd03c8f27ce7f66f58264980e2 *gd87-04-18d2t08.flac
e2c2ad47b5d7d4e2c77a1f027b333f2c *gd87-04-18d2t09.flac
3f9dec764dcb191069bed09bc4664769 *gd87-04-18d2t10.flac

Comments
Add Comment
Other Sources (comments)
AUD>DAT>CDR; Schoeps CMC... (0) Master Soundboard Casette >... (1) flac16; MAC;... (0) flac24; Recording... (1) flac16; Recording... (1)
Date User Comment