Browse Collections Artists Sources   Search Dates

Add Show    List Management    Help


Grateful Dead 04/19/87
Irvine Meadows, Irvine, CA
Comments Add Comment    Source Collectors    Add to Collection    Add to Want List    History
Source # 83734 Other Sources
Entered by Matt Vernon
Checksums ffp , flac-md5
Disc Counts 2 / 3
Media Size
Date Circulated
Date Added
03/27/2007
03/27/2007
Source Summary flac16; Recording Info: SBD -> Cassette Master (Maxell MX90/Sony D5) Transfer Info: Cassette Master (Tascam 122mkII) -> Apogee MiniMe (24bit/48k) -> Samplitude Professional v8.01 -> FLAC/16 All Transfers and Mastering By Charlie Miller 
  Archive
Source Information - Download Text | Download Zip
Grateful Dead - April 19, 1987
Irvine Meadows - Laguna Hills, CA

Recording Info:
SBD -> Cassette Master (Maxell MX90/Sony D5)

Transfer Info:
Cassette Master (Tascam 122mkII) -> Apogee MiniMe (24bit/48k) ->
Samplitude Professional v8.01 -> FLAC/16
(3 Discs Audio / 2 Discs FLAC)

All Transfers and Mastering By Charlie Miller
[email protected]
February 16, 2007

Patch Info:
Schoeps CMC4/MK4 -> PCM -> Dat -> CD supplies:
Space (0:07 - 0:14)

Notes:
-- Tapes were labeled "Broadcast Mix"
-- Thanks to Paul Scotton and Joani Walker for the tapes
-- Thanks to David Minches for the patch source
-- You can move the Encore to end of Set 1 to fit onto 2 discs

Set 1:
d1t01 - Mississippi Half-Step Uptown Toodeloo ->
d1t02 - Franklin's Tower
d1t03 - New Minglewood Blues
d1t04 - Ramble On Rose
d1t05 - Tons Of Steel
d1t06 - Box Of Rain
d1t07 - Cassidy
d1t08 - Alabama Getaway ->
d1t09 - The Promised Land

Set 2:
d2t01 - China Cat Sunflower ->
d2t02 - I Know You Rider ->
d2t03 - Man Smart (Woman Smarter) ->
d2t04 - Black Muddy River ->
d2t05 - I Need A Miracle ->
d2t06 - Cumberland Blues ->
d2t07 - Drums ->
d3t01 - Space ->
d3t02 - The Other One ->
d3t03 - Wharf Rat ->
d3t04 - Not Fade Away

Encore:
d3t05 - Not Fade Away ->
d3t06 - Brokedown Palace


SHNTOOL OUTPUT:
    length     expanded size   cdr  WAVE problems filename
     7:32.52       79855148    ---   --   -----   gd87-04-19d1t01.wav
     6:31.39       69064172    ---   --   -----   gd87-04-19d1t02.wav
     8:18.16       87884876    ---   --   -----   gd87-04-19d1t03.wav
     7:55.08       83808860    ---   --   -----   gd87-04-19d1t04.wav
     5:09.14       54540572    ---   --   -----   gd87-04-19d1t05.wav
     5:42.02       60333548    ---   --   -----   gd87-04-19d1t06.wav
     8:20.03       88207100    ---   --   -----   gd87-04-19d1t07.wav
     4:38.46       49147436    ---   --   -----   gd87-04-19d1t08.wav
     4:23.71       46560236    ---   --   -----   gd87-04-19d1t09.wav
     6:20.57       67166108    ---   --   -----   gd87-04-19d2t01.wav
     5:59.71       63494636    ---   --   -----   gd87-04-19d2t02.wav
     8:38.33       91452860    ---   --   -----   gd87-04-19d2t03.wav
     6:50.55       72453404    ---   --   -----   gd87-04-19d2t04.wav
     4:23.35       46475564    ---   --   -----   gd87-04-19d2t05.wav
     5:01.46       53204636    ---   --   -----   gd87-04-19d2t06.wav
     9:45.18      103236380    ---   --   -----   gd87-04-19d2t07.wav
     5:11.04       54869852    ---   --   -----   gd87-04-19d3t01.wav
     8:36.04       91031852    ---   --   -----   gd87-04-19d3t02.wav
     9:29.10      100395164    ---   --   -----   gd87-04-19d3t03.wav
     9:01.08       95451260    ---   --   -----   gd87-04-19d3t04.wav
     0:52.20        9219884    ---   --   -----   gd87-04-19d3t05.wav
     6:10.07       65284508    ---   --   -----   gd87-04-19d3t06.wav
   144:51.19     1533138056 B                     (totals for 22 files)
Show Checksums
ffp
gd87-04-19d1t01.flac:6585fdc36170364625b28113f94c613d
gd87-04-19d1t02.flac:f3c1877b8077f36fd9464a9e74687e64
gd87-04-19d1t03.flac:d2f849809e0468e9b5610b954d513a35
gd87-04-19d1t04.flac:d115fc6d876f3680d72c04f402fc76e1
gd87-04-19d1t05.flac:f67ca9e6eafeecf0e91794c7a930ff71
gd87-04-19d1t06.flac:c39312e19992d6309499996b7d0a58c3
gd87-04-19d1t07.flac:140ae1d244216b2ab1b8e7aaf654a216
gd87-04-19d1t08.flac:990a180ea5922c36ae0f066a2ffafd25
gd87-04-19d1t09.flac:2a96ecbdcf911105459852703e1c618c
gd87-04-19d2t01.flac:0f8939250f7aa3397a58123977dcacea
gd87-04-19d2t02.flac:938db1c5c70e1e500159ea460a7ab91b
gd87-04-19d2t03.flac:824739dd577288ffe96eca2af01ce086
gd87-04-19d2t04.flac:411ee29229342e6f9676dcbf28815ebb
gd87-04-19d2t05.flac:fa4efec5e5cae5c612198f46cc80deaa
gd87-04-19d2t06.flac:180f192269dcb464fc5ef43550d7a482
gd87-04-19d2t07.flac:5963eaeaab443325d32be02b99d5ac95
gd87-04-19d3t01.flac:1841d5cf946eeca04736ed1fce446b70
gd87-04-19d3t02.flac:0f388b6d201ede6bf41d3db2755ec3fd
gd87-04-19d3t03.flac:c5de6c3910484d8c3d07d237b974b313
gd87-04-19d3t04.flac:9e2acb5cf0a3df5fcc71a85d03d2c58a
gd87-04-19d3t05.flac:a839cfdc1f52149957baf01503af467c
gd87-04-19d3t06.flac:b254fc5bd7cd2c25c62fb54bf14c3eb6
flac-md5
b46e1033a13c2c527cfc25ff1c6cdea1 *gd87-04-19d1t01.flac
934cc9bdc2c603abbbd4c65baa45ca6d *gd87-04-19d1t02.flac
792f4f85d99586dec57348bee0da4caf *gd87-04-19d1t03.flac
a9c6f8e58f4797d4c3ef967d345bbb41 *gd87-04-19d1t04.flac
0f812b4673574e9599b548d413dfd036 *gd87-04-19d1t05.flac
5afd5122911931530b1bcf45e467bfd9 *gd87-04-19d1t06.flac
ba1499067f04f0c423c5210aa7886fe7 *gd87-04-19d1t07.flac
8e574d09c6f818ee287d959d4dfadfa0 *gd87-04-19d1t08.flac
6646aa515778981f5a792b38e2fa545d *gd87-04-19d1t09.flac
7e089d7d657e14236d38b2b0b03f6ed8 *gd87-04-19d2t01.flac
c77262650d82c7cc9839a1f237f1ab62 *gd87-04-19d2t02.flac
d72eb3bab3840afdb51b52e37e4e8916 *gd87-04-19d2t03.flac
2925b9e97d42e4dffd44f4c6653a9957 *gd87-04-19d2t04.flac
9781a43b1b03adbf9751ed71502f59d6 *gd87-04-19d2t05.flac
ab7e4a32159f280413bd9e7ec37b3112 *gd87-04-19d2t06.flac
7c08a6a430e7fc97c6e59be4ce4104d5 *gd87-04-19d2t07.flac
390a9168ac983894d3e746247e087049 *gd87-04-19d3t01.flac
9cde3bcf738f35b9bbf2d5a60d702662 *gd87-04-19d3t02.flac
de5c269799b664a4f5b9e86cac3f7b38 *gd87-04-19d3t03.flac
19ec10913091dd5b1aa624c7465c45d5 *gd87-04-19d3t04.flac
57d045176c05570a34f7cd7f6633f4aa *gd87-04-19d3t05.flac
b5075c67faee4d2f1f141f91b7120682 *gd87-04-19d3t06.flac

Comments
Add Comment
Other Sources (comments)
SBD > Cass Master > PCM >... (1) Healy Ultramix SBD/AUD> CM>... (0) Master Soundboard Casette >... (0) flac16; source:... (1) flac16; Audience... (0) flac16; Digital... (0) flac24; Recording... (0) flac16; Recording... (0)
Date User Comment