Browse Collections Artists Sources   Search Dates

Add Show    List Management    Help


Grateful Dead 05/02/87
Frost Amphitheatre, Palo Alto, CA
Comments Add Comment    Source Collectors    Add to Collection    Add to Want List    History
Source # 83737 Other Sources
Entered by Matt Vernon
Checksums ffp , flac-md5
Disc Counts 2 / 2
Media Size
Date Circulated
Date Added
03/27/2007
03/27/2007
Source Summary flac16; Recording Info: SBD -> Cassette Master (Maxell MX90/Sony D5) Transfer Info: Cassette Master (Tascam 122mkII) -> Apogee MiniMe (24bit/48k) -> Samplitude Professional v8.01 -> FLAC/16 All Transfers and Mastering By Charlie Miller 
  Archive
Source Information - Download Text | Download Zip
Grateful Dead - May 2, 1987
Frost Amphitheatre - Palo Alto, CA

Recording Info:
SBD -> Cassette Master (Maxell MX90/Sony D5)

Transfer Info:
Cassette Master (Tascam 122mkII) -> Apogee MiniMe (24bit/48k) ->
Samplitude Professional v8.01 -> FLAC/16
(2 Discs Audio / 2 Discs FLAC)

All Transfers and Mastering By Charlie Miller
[email protected]
February 16, 2007

Notes:
-- Disc change is seamless
-- Thanks to Paul Scotton and Joani Walker for the tapes

Set 1:
d1t01 - Tuning
d1t02 - Hell In A Bucket
d1t03 - West L.A. Fadeaway
d1t04 - Beat It On Down The Line
d1t05 - Stagger Lee
d1t06 - Little Red Rooster
d1t07 - Dire Wolf ->
d1t08 - Far From Me
d1t09 - Jack Straw ->
d1t10 - When Push Comes To Shove
d1t11 - One More Saturday Night

Set 2:
d1t12 - China Cat Sunflower ->
d1t13 - I Know You Rider
d2t01 - Playing In The Band ->
d2t02 - Terrapin Station ->
d2t03 - Drums ->
d2t04 - Space ->
d2t05 - Truckin' ->
d2t06 - Morning Dew ->
d2t07 - Around And Around ->
d2t08 - Turn On Your Lovelight

Encore:
d2t09 - Black Muddy River


SHNTOOL OUTPUT:
    length     expanded size   cdr  WAVE problems filename
     3:02.33       32182460    ---   --   -----   gd87-05-02d1t01.wav
     5:34.26       58978796    ---   --   -----   gd87-05-02d1t02.wav
     9:25.05       99677804    ---   --   -----   gd87-05-02d1t03.wav
     3:14.38       34311020    ---   --   -----   gd87-05-02d1t04.wav
     6:30.16       68833676    ---   --   -----   gd87-05-02d1t05.wav
    10:38.17      112583228    ---   --   -----   gd87-05-02d1t06.wav
     3:19.43       35204780    ---   --   -----   gd87-05-02d1t07.wav
     5:40.44       60079532    ---   --   -----   gd87-05-02d1t08.wav
     6:33.00       69325244    ---   --   -----   gd87-05-02d1t09.wav
     6:11.43       65545580    ---   --   -----   gd87-05-02d1t10.wav
     4:59.14       52776572    ---   --   -----   gd87-05-02d1t11.wav
     6:27.21       68316236    ---   --   -----   gd87-05-02d1t12.wav
     7:12.14       76237772    ---   --   -----   gd87-05-02d1t13.wav
     8:07.23       85960940    ---   --   -----   gd87-05-02d2t01.wav
    11:37.25      123009644    ---   --   -----   gd87-05-02d2t02.wav
    10:01.69      106178732    ---   --   -----   gd87-05-02d2t03.wav
     8:56.72       94719788    ---   --   -----   gd87-05-02d2t04.wav
     6:26.47       68200988    ---   --   -----   gd87-05-02d2t05.wav
    11:17.63      119571020    ---   --   -----   gd87-05-02d2t06.wav
     3:44.32       39588908    ---   --   -----   gd87-05-02d2t07.wav
     6:03.26       64094396    ---   --   -----   gd87-05-02d2t08.wav
     6:25.55       68043404    ---   --   -----   gd87-05-02d2t09.wav
   151:29.51     1603420520 B                     (totals for 22 files)
Show Checksums
ffp
gd87-05-02d1t01.flac:168c6a95089b840a58d3474e6a9c34ee
gd87-05-02d1t02.flac:aaca87f2744d54db706c4746cbc1bd5a
gd87-05-02d1t03.flac:5ada55852f8199bf92081da941dc34bb
gd87-05-02d1t04.flac:69e7dca6c3eab7a8e8b01946f609eddd
gd87-05-02d1t05.flac:04a856e24f950d2abbe4a99fe7092db3
gd87-05-02d1t06.flac:d720a0e8337839f49700e578f850ebfc
gd87-05-02d1t07.flac:74e56e2096576a971108d1acff68ebcd
gd87-05-02d1t08.flac:042c324247fca7c69f30f70a305b7b99
gd87-05-02d1t09.flac:5cd31b9c32fd89cb5a5820c26b821f2b
gd87-05-02d1t10.flac:a04b7d01002836879afef2e201c64b5d
gd87-05-02d1t11.flac:23fa33d34c24d9d9fbb1df10450ab390
gd87-05-02d1t12.flac:afd2a2d9fc22e6ff77918ce369921b06
gd87-05-02d1t13.flac:6afb7cfbbed73e3cfb236186d78b1a45
gd87-05-02d2t01.flac:23d16ea1ac9dfeaaea09da80527726dd
gd87-05-02d2t02.flac:510861d770906504633dddf8cd847652
gd87-05-02d2t03.flac:3d728472f29d237f2cdb570556261f58
gd87-05-02d2t04.flac:4fcda4b2091d6054207417e26e83b047
gd87-05-02d2t05.flac:e9629ef7cb9270d9ce04cf888630e784
gd87-05-02d2t06.flac:7fb44b81651ee676d6b75180efb5c8c5
gd87-05-02d2t07.flac:18815d48c70fde95fba70fdea435b717
gd87-05-02d2t08.flac:3ca8ecd92b3818a5144f7a29961e0617
gd87-05-02d2t09.flac:a405d1703b3cb3c8a4fd0c8e6ef7d822
flac-md5
d605b6623b69c823c8ad73bcb471ea62 *gd87-05-02d1t01.flac
a19f327c840b316374ffdf32f3fd47e4 *gd87-05-02d1t02.flac
6f7983b48f3166e3eed7a55d03586ff1 *gd87-05-02d1t03.flac
510cb17f2e5251808f824affe73804f7 *gd87-05-02d1t04.flac
d6f6f669ee5bc0d75dd63e83c5b40268 *gd87-05-02d1t05.flac
3b6b3709b319047897e589fe4cca068d *gd87-05-02d1t06.flac
52c47764e4134391b747ff8cbb6529c9 *gd87-05-02d1t07.flac
499f4ff5af3d8d23b40ada4fbe7f7f36 *gd87-05-02d1t08.flac
3ef8ecb4c4a35fbe0420147da29febe1 *gd87-05-02d1t09.flac
2a93bbe6d5621857f015fcfc2baca14d *gd87-05-02d1t10.flac
3b32dd18ad94b8a0fea7b0ac2451d2ee *gd87-05-02d1t11.flac
4ac33ef20b93297aaafcfd11c8af8275 *gd87-05-02d1t12.flac
18753049fa8143c5424e1406fdc919a4 *gd87-05-02d1t13.flac
ec9e4499eb9cd37c050c9c9da01c24df *gd87-05-02d2t01.flac
e3559b249d44252d52db07485bd6cbcb *gd87-05-02d2t02.flac
d18baef6d6a142592491ef63913f5c4d *gd87-05-02d2t03.flac
59585075198eb047c4f79785bd4037e2 *gd87-05-02d2t04.flac
6c0fa80bcea668d71f129cb5e63618bf *gd87-05-02d2t05.flac
91cbee5c88760512377accfe23e6753b *gd87-05-02d2t06.flac
f527da4f142e147c98e0964730b824ad *gd87-05-02d2t07.flac
2b2d4d4668f918d78acec0a501220dcb *gd87-05-02d2t08.flac
8b9c4f4b1ddd664074a60200e1fd6b3d *gd87-05-02d2t09.flac

Comments
Add Comment
Other Sources (comments)
SBD > MC > DAT > EAC > SHN;... (0) Source: FOB 10th Row Sony... (0) flac16; Source: FOB... (0) flac16; Master... (0) flac16; Recording... (0)
Date User Comment