Browse Collections Artists Sources   Search Dates

Add Show    List Management    Help


Grateful Dead 06/13/87
Ventura County Fairgrounds, Ventura, CA
Comments Add Comment    Source Collectors    Add to Collection    Add to Want List    History
Source # 83748 Other Sources
Entered by Matt Vernon
Checksums ffp , flac-md5
Disc Counts 0 / 0
Media Size
Date Circulated
Date Added
03/28/2007
03/28/2007
Source Summary flac24/96; Source: Audience FOB Recording, Center Media: AKY Recording Supply Custom Wound BASF 100% CrO2 90 min. Lineage: AKG C460b pre's with Ck61uls capsules > Uher CR240 > MAC Transfer: MAC > Nakamichi DR-1 > Benchmark ADC-1 > AES > Sound Devices 722 > wav Mastering: Wavelab 6.0 - Ozone EQ, BBE Bass Contour and L2 for Dither. Taped by: D. Thompson Transfer by: A. Egert Mastering by: J. Waddell 
  Archive
Source Information - Download Text | Download Zip
MotB Release: 0016/24bit
Release Date: March 28, 2007

Band: Grateful Dead
Date: 06/13/1987 - Saturday
Venue: Ventura County Fairgrounds
Location: Ventura, CA

Source: Audience FOB Recording, Center
Media: AKY Recording Supply Custom Wound BASF 100% CrO2 90 min.
Lineage: AKG C460b pre's with Ck61uls capsules > Uher CR240 > MAC
Transfer: MAC > Nakamichi DR-1 > Benchmark ADC-1 > AES > Sound Devices 722 > wav
Mastering: Wavelab 6.0 - Ozone EQ, BBE Bass Contour and L2 for Dither.

Taped by: D. Thompson
Transfer by: A. Egert
Mastering by: J. Waddell

SET I
01. # Mississippi Half-Step Uptown Toodleloo
02. Walkin' Blues
03. Row Jimmy
04. When I Paint My Masterpiece *
05. When Push Comes To Shove
06. Cassidy
07. Friend Of The Devil >
08. Let It Grow

SET II
01. Venue Announcements
02. Crowd
03. Shakedown Street
04. Saint Of Circumstance >
05. Ship Of Fools
06. Estimated Prophet >
07. Eyes Of The World >
08. Drums >
09. Space >
10. The Other One >
11. Morning Dew >
12. Sugar Magnolia
13. Crowd
Encore
E1. Black Muddy River

Patch Info:
- Clugston SBD [SHNID 11895] supplies end of Eyes and 2 minutes of Drums.

Notes:
- # Half-Step fades in on first notes.
- * First time When I Paint My Masterpiece was played.
- Set 1: Numerous taper pauses at the end and/or beginning of tracks. Minimal music lost, if any.


FLAC FINGERPRINTS:
gd1987-06-13.motb.0016.s1t01.flac:3179a58a2108293613b78fb2b3c86248
gd1987-06-13.motb.0016.s1t02.flac:e353c80279f66f5da21801b68f6dcaa8
gd1987-06-13.motb.0016.s1t03.flac:9c7a74de21bb72f64edd55e453693fc7
gd1987-06-13.motb.0016.s1t04.flac:605762a4c545dda4941950154bc4de4c
gd1987-06-13.motb.0016.s1t05.flac:6993245d976f61beb618f23591dc96d8
gd1987-06-13.motb.0016.s1t06.flac:3c8b1efb3f5947f0e69e64a89bfe8773
gd1987-06-13.motb.0016.s1t07.flac:bfeae5059fc306b4a693c51c06ea6cfd
gd1987-06-13.motb.0016.s1t08.flac:22e9a55c8971d7d50b82b03d316f61d2
gd1987-06-13.motb.0016.s2t01.flac:3bcc27269b738dc315d2b1e859d77518
gd1987-06-13.motb.0016.s2t02.flac:c3b3e76cd0064619dca7cfb16ff82da6
gd1987-06-13.motb.0016.s2t03.flac:7124158746176fec958ae0e65520a0e2
gd1987-06-13.motb.0016.s2t04.flac:01e183ee14f2b38001d97c94898e6150
gd1987-06-13.motb.0016.s2t05.flac:311f0bce4cb058b41e44b34f259bca07
gd1987-06-13.motb.0016.s2t06.flac:0ec9fe3e75eb1eebc58f77906ee300ba
gd1987-06-13.motb.0016.s2t07.flac:e9e43c6c55c21ad2cfed03f689153e8b
gd1987-06-13.motb.0016.s2t08.flac:e4a0f9d0caf50b7b01e7fec22c251585
gd1987-06-13.motb.0016.s2t09.flac:b87722267bbac5b7cd52aecb95a38ab4
gd1987-06-13.motb.0016.s2t10.flac:4e45f92201a3a36bee65cb68fe3ee625
gd1987-06-13.motb.0016.s2t11.flac:6a13a39dc02bc1843d9e243f8b37445a
gd1987-06-13.motb.0016.s2t12.flac:4c8b291538d241b11a3697561f8611f8
gd1987-06-13.motb.0016.s2t13.flac:b5eb87fc5715b4d5e76e85dc461eeb0b
gd1987-06-13.motb.0016.sEt01.flac:16b3e21265c95947027eaa3f7ba45c30

MD5 CHECKSUMS:
4798a0bc89128731682f73b217328b3a *gd1987-06-13.motb.0016.s1t01.flac
0a2f11d4ec5ef617dbc7778932470001 *gd1987-06-13.motb.0016.s1t02.flac
9a6b6bd6a06a7417dd9e8542a12bec4e *gd1987-06-13.motb.0016.s1t03.flac
ca0d7cd319c3b0f58f26b7bf895d7672 *gd1987-06-13.motb.0016.s1t04.flac
ac4cde29b13df2e831f4a4d9d638cb20 *gd1987-06-13.motb.0016.s1t05.flac
def8f069c173bfd491a907b19d22d5ad *gd1987-06-13.motb.0016.s1t06.flac
6789a82d39624efa4b85fcbbfc93c976 *gd1987-06-13.motb.0016.s1t07.flac
c371195d2a6a95906902eb744f8e5ca4 *gd1987-06-13.motb.0016.s1t08.flac
ec0c303e3df63af1759b38fa9d5d3c8e *gd1987-06-13.motb.0016.s2t01.flac
c9b1f3d3aab3109245557734666f32c1 *gd1987-06-13.motb.0016.s2t02.flac
5a4b1b3aeddbc8cdcd41e1237064bc8b *gd1987-06-13.motb.0016.s2t03.flac
7688b190e277d5b276ca2dbf9eec40a6 *gd1987-06-13.motb.0016.s2t04.flac
fa21c5c01e6ba641065b8580497a27f0 *gd1987-06-13.motb.0016.s2t05.flac
e947049eb60c2e66119ed2c06e432237 *gd1987-06-13.motb.0016.s2t06.flac
af91f12aa272fcf5f8f2f895a96327fc *gd1987-06-13.motb.0016.s2t07.flac
8f8374ae61b5431925ff04e9463ad760 *gd1987-06-13.motb.0016.s2t08.flac
72f0c1d461688fc5050301cf417021e9 *gd1987-06-13.motb.0016.s2t09.flac
8a4f698fe415e5467a208db9a9981d70 *gd1987-06-13.motb.0016.s2t10.flac
e25fc986ebd48d13145cd13d4e922f37 *gd1987-06-13.motb.0016.s2t11.flac
d7dc11db5642879fc0ec130bc1531b7f *gd1987-06-13.motb.0016.s2t12.flac
cf20f15bea2fcc27838774e700ac408e *gd1987-06-13.motb.0016.s2t13.flac
3f70c40967ea01a784a678711e232772 *gd1987-06-13.motb.0016.sEt01.flac

SHNTOOL OUTPUT:
    length     expanded size   cdr  WAVE problems filename
     6:54.816     238933844    cxx   --   ---xx   gd1987-06-13.motb.0016.s1t01.flac
     6:35.577     227852396    cxx   --   ---xx   gd1987-06-13.motb.0016.s1t02.flac
     8:56.274     308894084    cxx   --   ---xx   gd1987-06-13.motb.0016.s1t03.flac
     4:21.685     150730316    cxx   --   ---xx   gd1987-06-13.motb.0016.s1t04.flac
     5:15.829     181917836    cxx   --   ---xx   gd1987-06-13.motb.0016.s1t05.flac
     6:30.199     224754812    cxx   --   ---xx   gd1987-06-13.motb.0016.s1t06.flac
     7:46.823     268890092    cxx   --   ---xx   gd1987-06-13.motb.0016.s1t07.flac
    11:56.809     412881884    cxx   --   ---xx   gd1987-06-13.motb.0016.s1t08.flac
     3:08.668     108673028    cxx   --   ---xx   gd1987-06-13.motb.0016.s2t01.flac
     0:44.921      25874396    cxx   --   ---xx   gd1987-06-13.motb.0016.s2t02.flac
    13:18.455     459910124    cxx   --   ---xx   gd1987-06-13.motb.0016.s2t03.flac
     6:38.652     229623452    cxx   --   ---xx   gd1987-06-13.motb.0016.s2t04.flac
     8:13.601     284314508    cxx   --   ---xx   gd1987-06-13.motb.0016.s2t05.flac
    10:41.465     369483956    cxx   --   ---xx   gd1987-06-13.motb.0016.s2t06.flac
     7:28.221     258175556    cxx   --   ---xx   gd1987-06-13.motb.0016.s2t07.flac
     7:39.767     264825836    cxx   --   ---xx   gd1987-06-13.motb.0016.s2t08.flac
     5:50.172     201699332    cxx   --   ---xx   gd1987-06-13.motb.0016.s2t09.flac
     8:01.315     277237340    cxx   --   ---xx   gd1987-06-13.motb.0016.s2t10.flac
     9:45.783     337410908    cxx   --   ---xx   gd1987-06-13.motb.0016.s2t11.flac
     8:59.876     310968548    cxx   --   ---xx   gd1987-06-13.motb.0016.s2t12.flac
     0:27.195      15664364    cxx   --   ---xx   gd1987-06-13.motb.0016.s2t13.flac
     6:20.087     218930084    cxx   --   ---xx   gd1987-06-13.motb.0016.sEt01.flac
   155:36.191    5377646696 B                     (totals for 22 files, 0.6971 overall compression ratio)

Show Checksums
ffp
gd1987-06-13.motb.0016.s1t01.flac:3179a58a2108293613b78fb2b3c86248
gd1987-06-13.motb.0016.s1t02.flac:e353c80279f66f5da21801b68f6dcaa8
gd1987-06-13.motb.0016.s1t03.flac:9c7a74de21bb72f64edd55e453693fc7
gd1987-06-13.motb.0016.s1t04.flac:605762a4c545dda4941950154bc4de4c
gd1987-06-13.motb.0016.s1t05.flac:6993245d976f61beb618f23591dc96d8
gd1987-06-13.motb.0016.s1t06.flac:3c8b1efb3f5947f0e69e64a89bfe8773
gd1987-06-13.motb.0016.s1t07.flac:bfeae5059fc306b4a693c51c06ea6cfd
gd1987-06-13.motb.0016.s1t08.flac:22e9a55c8971d7d50b82b03d316f61d2
gd1987-06-13.motb.0016.s2t01.flac:3bcc27269b738dc315d2b1e859d77518
gd1987-06-13.motb.0016.s2t02.flac:c3b3e76cd0064619dca7cfb16ff82da6
gd1987-06-13.motb.0016.s2t03.flac:7124158746176fec958ae0e65520a0e2
gd1987-06-13.motb.0016.s2t04.flac:01e183ee14f2b38001d97c94898e6150
gd1987-06-13.motb.0016.s2t05.flac:311f0bce4cb058b41e44b34f259bca07
gd1987-06-13.motb.0016.s2t06.flac:0ec9fe3e75eb1eebc58f77906ee300ba
gd1987-06-13.motb.0016.s2t07.flac:e9e43c6c55c21ad2cfed03f689153e8b
gd1987-06-13.motb.0016.s2t08.flac:e4a0f9d0caf50b7b01e7fec22c251585
gd1987-06-13.motb.0016.s2t09.flac:b87722267bbac5b7cd52aecb95a38ab4
gd1987-06-13.motb.0016.s2t10.flac:4e45f92201a3a36bee65cb68fe3ee625
gd1987-06-13.motb.0016.s2t11.flac:6a13a39dc02bc1843d9e243f8b37445a
gd1987-06-13.motb.0016.s2t12.flac:4c8b291538d241b11a3697561f8611f8
gd1987-06-13.motb.0016.s2t13.flac:b5eb87fc5715b4d5e76e85dc461eeb0b
gd1987-06-13.motb.0016.sEt01.flac:16b3e21265c95947027eaa3f7ba45c30
flac-md5
4798a0bc89128731682f73b217328b3a *gd1987-06-13.motb.0016.s1t01.flac
0a2f11d4ec5ef617dbc7778932470001 *gd1987-06-13.motb.0016.s1t02.flac
9a6b6bd6a06a7417dd9e8542a12bec4e *gd1987-06-13.motb.0016.s1t03.flac
ca0d7cd319c3b0f58f26b7bf895d7672 *gd1987-06-13.motb.0016.s1t04.flac
ac4cde29b13df2e831f4a4d9d638cb20 *gd1987-06-13.motb.0016.s1t05.flac
def8f069c173bfd491a907b19d22d5ad *gd1987-06-13.motb.0016.s1t06.flac
6789a82d39624efa4b85fcbbfc93c976 *gd1987-06-13.motb.0016.s1t07.flac
c371195d2a6a95906902eb744f8e5ca4 *gd1987-06-13.motb.0016.s1t08.flac
ec0c303e3df63af1759b38fa9d5d3c8e *gd1987-06-13.motb.0016.s2t01.flac
c9b1f3d3aab3109245557734666f32c1 *gd1987-06-13.motb.0016.s2t02.flac
5a4b1b3aeddbc8cdcd41e1237064bc8b *gd1987-06-13.motb.0016.s2t03.flac
7688b190e277d5b276ca2dbf9eec40a6 *gd1987-06-13.motb.0016.s2t04.flac
fa21c5c01e6ba641065b8580497a27f0 *gd1987-06-13.motb.0016.s2t05.flac
e947049eb60c2e66119ed2c06e432237 *gd1987-06-13.motb.0016.s2t06.flac
af91f12aa272fcf5f8f2f895a96327fc *gd1987-06-13.motb.0016.s2t07.flac
8f8374ae61b5431925ff04e9463ad760 *gd1987-06-13.motb.0016.s2t08.flac
72f0c1d461688fc5050301cf417021e9 *gd1987-06-13.motb.0016.s2t09.flac
8a4f698fe415e5467a208db9a9981d70 *gd1987-06-13.motb.0016.s2t10.flac
e25fc986ebd48d13145cd13d4e922f37 *gd1987-06-13.motb.0016.s2t11.flac
d7dc11db5642879fc0ec130bc1531b7f *gd1987-06-13.motb.0016.s2t12.flac
cf20f15bea2fcc27838774e700ac408e *gd1987-06-13.motb.0016.s2t13.flac
3f70c40967ea01a784a678711e232772 *gd1987-06-13.motb.0016.sEt01.flac

Comments
Add Comment
Other Sources (comments)
Matrix SBD>CASS>DAT>CD; via... (0) Master Soundboard Cassette... (0) flac16; MAC (2 Senn.... (1) flac24; SRC: MAC (2... (1) flac16; Main Source:... (0) flac16; Source:... (0) flac16; Recording... (0) flac24;... (0)
Date User Comment