Browse Collections Artists Sources   Search Dates

Add Show    List Management    Help


Grateful Dead 05/09/87
Laguna Seca Recreation Area, Monterey, CA
Comments Add Comment    Source Collectors    Add to Collection    Add to Want List    History
Source # 83749 Other Sources
Entered by Matt Vernon
Checksums ffp , flac-md5
Disc Counts 2 / 2
Media Size
Date Circulated
Date Added
03/27/2007
03/28/2007
Source Summary flac16; Recording Info: SBD -> Cassette Master (Maxell MX90/Sony D5) Transfer Info: Cassette Master (Tascam 122mkII) -> Apogee MiniMe (24bit/48k) -> Samplitude Professional v8.01 -> FLAC/16 All Transfers and Mastering By Charlie Miller 
  Archive
Source Information - Download Text | Download Zip
Grateful Dead - May 9, 1987
Laguna Seca Raceway - Monterey, CA

Recording Info:
SBD -> Cassette Master (Maxell MX90/Sony D5)

Transfer Info:
Cassette Master (Tascam 122mkII) -> Apogee MiniMe (24bit/48k) ->
Samplitude Professional v8.01 -> FLAC/16
(2 Discs Audio / 2 Discs FLAC)

All Transfers and Mastering By Charlie Miller
[email protected]
February 16, 2007

Notes:
-- Thanks to Paul Scotton and Joani Walker for the tapes

Set 1:
d1t01 - Tuning
d1t02 - Sugar Magnolia ->
d1t03 - Sugaree
d1t04 - Funiculi Funicula
d1t05 - Me And My Uncle ->
d1t06 - Mexicali Blues
d1t07 - When Push Comes To Shove
d1t08 - Tons Of Steel
d1t09 - My Brother Esau
d1t10 - Tennessee Jed
d1t11 - Let It Grow

Set 2:
d2t01 - Touch Of Grey ->
d2t02 - Looks Like Rain ->
d2t03 - He's Gone ->
d2t04 - Drums ->
d2t05 - Space ->
d2t06 - The Wheel ->
d2t07 - The Other One ->
d2t08 - Wharf Rat ->
d2t09 - Around And Around ->
d2t10 - Sunshine Daydream

Encore:
d2t11 - Iko Iko


SHNTOOL OUTPUT:
    length     expanded size   cdr  WAVE problems filename
     2:13.61       23604716    ---   --   -----   gd87-05-09d1t01.wav
     4:49.52       51101948    ---   --   -----   gd87-05-09d1t02.wav
    10:10.27      107667548    ---   --   -----   gd87-05-09d1t03.wav
     1:27.50       15464444    ---   --   -----   gd87-05-09d1t04.wav
     3:06.25       32869244    ---   --   -----   gd87-05-09d1t05.wav
     5:56.31       62871356    ---   --   -----   gd87-05-09d1t06.wav
     5:23.07       56993708    ---   --   -----   gd87-05-09d1t07.wav
     5:40.44       60079532    ---   --   -----   gd87-05-09d1t08.wav
     4:39.43       49316780    ---   --   -----   gd87-05-09d1t09.wav
     9:59.03      105670700    ---   --   -----   gd87-05-09d1t10.wav
    12:00.69      127170332    ---   --   -----   gd87-05-09d1t11.wav
     6:19.00       66855644    ---   --   -----   gd87-05-09d2t01.wav
     8:57.27       94790348    ---   --   -----   gd87-05-09d2t02.wav
     9:48.66      103878476    ---   --   -----   gd87-05-09d2t03.wav
     7:18.33       77340860    ---   --   -----   gd87-05-09d2t04.wav
     8:24.11       88931516    ---   --   -----   gd87-05-09d2t05.wav
     4:26.38       47011820    ---   --   -----   gd87-05-09d2t06.wav
     5:11.20       54907484    ---   --   -----   gd87-05-09d2t07.wav
     9:22.53       99261500    ---   --   -----   gd87-05-09d2t08.wav
     4:01.43       42613580    ---   --   -----   gd87-05-09d2t09.wav
     4:36.38       48775820    ---   --   -----   gd87-05-09d2t10.wav
     5:30.36       58296716    ---   --   -----   gd87-05-09d2t11.wav
   139:24.27     1475474072 B                     (totals for 22 files)
Show Checksums
ffp
gd87-05-09d1t01.flac:367a465f008e830945bf3c4372846aa1
gd87-05-09d1t02.flac:1176fc6719d127d1cc86452a49892180
gd87-05-09d1t03.flac:70308c610274d44cf35ca7d7f6ab6579
gd87-05-09d1t04.flac:7493b8611a8f8eba5414205b06157211
gd87-05-09d1t05.flac:72e2193383f04c4492c987f99dd3e5af
gd87-05-09d1t06.flac:af9ce519446acd2367a711d5cdf31b22
gd87-05-09d1t07.flac:92235993d8613727d3f3bca9aae6895f
gd87-05-09d1t08.flac:bcc88319566962c089f4b064f2add53f
gd87-05-09d1t09.flac:1e4f32ca532fbba4e37d2964fcb1d6c4
gd87-05-09d1t10.flac:efcd4ab3bd20c576a9d42fbc0c8d7fb6
gd87-05-09d1t11.flac:60c37275fa2d4f47645894212f9f4e20
gd87-05-09d2t01.flac:8acc3ea7d7e454f7fba1849f8870d898
gd87-05-09d2t02.flac:5d89b4f07f31eb829ebe1159cd516bb2
gd87-05-09d2t03.flac:e9b2eb2b83302f730a0795e4092d1ddd
gd87-05-09d2t04.flac:bda0ae63161e4a4bd5981da9cd11ceb9
gd87-05-09d2t05.flac:6632e213b4f02fc9d7f2d15bc9240b05
gd87-05-09d2t06.flac:10ec357a5e40bdcb343b69dc98eea50e
gd87-05-09d2t07.flac:df4d28d28f90fbb7d0e4c2d1cb248c1a
gd87-05-09d2t08.flac:505e9e8b4f8e3ab86eac782702f9dd6b
gd87-05-09d2t09.flac:5a766596ef3073bff6641bc2e480e3bd
gd87-05-09d2t10.flac:d45aeac26f7ad27388a8c6665b408bb0
gd87-05-09d2t11.flac:8b7d090e79dc8d4c244f4cbdb2c2d3f6
flac-md5
f9a936040cdeb657403e3d240b849d30 *gd87-05-09d1t01.flac
f38a53180b350f148b62573481d866be *gd87-05-09d1t02.flac
fb6814f2c14e533e8c67087278f30f70 *gd87-05-09d1t03.flac
bc2cfb99d36198c53bff6d78deb75a18 *gd87-05-09d1t04.flac
6408f7d5920fe0d404c54475c614bbb2 *gd87-05-09d1t05.flac
0f21f988d0dd8449d83befd063bf5415 *gd87-05-09d1t06.flac
69626de1c6807dc88e6b4a9b1de106fe *gd87-05-09d1t07.flac
e378b18db1f4c8296ec5ab8ffb7aaabe *gd87-05-09d1t08.flac
2004b011e88e18e5ec55f538910637cc *gd87-05-09d1t09.flac
f17b09250f71d432fd9f183db9fe68b8 *gd87-05-09d1t10.flac
ea80b4ddaf936cc1053b7d06a0f969bf *gd87-05-09d1t11.flac
5e255ce46d3692dbac853030474adb32 *gd87-05-09d2t01.flac
30c1bb7b8478bee55f2467580aab324d *gd87-05-09d2t02.flac
9c479fc839b26ada7af7574eab6ad4fb *gd87-05-09d2t03.flac
a9d50dc48675b30ee1c78c495ba8da33 *gd87-05-09d2t04.flac
0e3c4ebe6bcbcd60a62562918d0f5603 *gd87-05-09d2t05.flac
624a710eab910affaa24a2b354581c62 *gd87-05-09d2t06.flac
d7b58f0022d319302df05cacd0b74f2f *gd87-05-09d2t07.flac
67415e8c3aa67fa962a17481921c44ca *gd87-05-09d2t08.flac
09125bf3c16b4e3a9c44e57c17000a6c *gd87-05-09d2t09.flac
721192e46b2ef502711f9f5198c4e74e *gd87-05-09d2t10.flac
019e2f433c4a21790ea116e3015eb9c9 *gd87-05-09d2t11.flac

Comments
Add Comment
Other Sources (comments)
SBD (matrix)> PCM> Dat;... (1) flac16; Hat Mounted... (0) flac16; (FOB)... (0)
Date User Comment