Browse Collections Artists Sources   Search Dates

Add Show    List Management    Help


Grateful Dead 05/10/87
Laguna Seca Recreation Area, Monterey, CA
Comments Add Comment    Source Collectors    Add to Collection    Add to Want List    History
Source # 83750 Other Sources
Entered by Matt Vernon
Checksums ffp , flac-md5
Disc Counts 2 / 2
Media Size
Date Circulated
Date Added
03/27/2007
03/28/2007
Source Summary flac16; Recording Info: SBD -> Cassette Master (Maxell MX90/Sony D5) Transfer Info: Cassette Master (Tascam 122mkII) -> Apogee MiniMe (24bit/48k) -> Samplitude Professional v8.01 -> FLAC/16 All Transfers and Mastering By Charlie Miller 
  Archive
Source Information - Download Text | Download Zip
Grateful Dead - May 10, 1987
Laguna Seca Raceway - Monterey, CA

Recording Info:
SBD -> Cassette Master (Maxell MX90/Sony D5)

Transfer Info:
Cassette Master (Tascam 122mkII) -> Apogee MiniMe (24bit/48k) ->
Samplitude Professional v8.01 -> FLAC/16
(2 Discs Audio / 2 Discs FLAC)

All Transfers and Mastering By Charlie Miller
[email protected]
February 16, 2007

Patch Info:
SBD>PCM>Dat>Samplitude>Cool Edit Pro>CD supplies:
Space (0:08 - 0:19)

Notes:
-- Encore on end of 1st Set to fit show onto 2 discs
-- 2nd Set and Encore can be re-joined seamlessly
-- Thanks to Paul Scotton and Joani Walker for the tapes

Set 1:
d1t01 - Tuning
d1t02 - Mississippi Half-Step Uptown Toodeloo ->
d1t03 - Feel Like A Stranger
d1t04 - West L.A. Fadeaway
d1t05 - New Minglewood Blues
d1t06 - Row Jimmy
d1t07 - Box Of Rain ->
d1t08 - Desolation Row ->
d1t09 - Don't Ease Me In

Set 2:
d2t01 - Tuning
d2t02 - Hell In A Bucket ->
d2t03 - Scarlet Begonias ->
d2t04 - Fire On The Mountain ->
d2t05 - Man Smart (Woman Smarter) ->
d2t06 - Drums ->
d2t07 - Space ->
d2t08 - China Doll ->
d2t09 - Playing In The Band ->
d2t10 - Throwing Stones ->
d2t11 - Turn On Your Lovelight

Encore:
d1t10 - Not Fade Away ->
d1t11 - Black Muddy River


SHNTOOL OUTPUT:
    length     expanded size   cdr  WAVE problems filename
     0:40.34        7136012    ---   --   -----   gd87-05-10d1t01.wav
     7:08.73       75670940    ---   --   -----   gd87-05-10d1t02.wav
     8:15.61       87461516    ---   --   -----   gd87-05-10d1t03.wav
     7:57.32       84218108    ---   --   -----   gd87-05-10d1t04.wav
     8:49.05       93327404    ---   --   -----   gd87-05-10d1t05.wav
     9:54.70      104946284    ---   --   -----   gd87-05-10d1t06.wav
     5:29.26       58096796    ---   --   -----   gd87-05-10d1t07.wav
     9:00.50       95373644    ---   --   -----   gd87-05-10d1t08.wav
     3:35.29       37994252    ---   --   -----   gd87-05-10d1t09.wav
     7:09.26       75736796    ---   --   -----   gd87-05-10d1t10.wav
     6:33.71       69492236    ---   --   -----   gd87-05-10d1t11.wav
     1:38.52       17409548    ---   --   -----   gd87-05-10d2t01.wav
     6:01.38       63769820    ---   --   -----   gd87-05-10d2t02.wav
     9:35.44      101533532    ---   --   -----   gd87-05-10d2t03.wav
     9:44.21      103067036    ---   --   -----   gd87-05-10d2t04.wav
     7:31.11       79582316    ---   --   -----   gd87-05-10d2t05.wav
     7:33.12       79937468    ---   --   -----   gd87-05-10d2t06.wav
     7:55.23       83844140    ---   --   -----   gd87-05-10d2t07.wav
     5:30.38       58301420    ---   --   -----   gd87-05-10d2t08.wav
     3:44.26       39574796    ---   --   -----   gd87-05-10d2t09.wav
     8:51.47       93778988    ---   --   -----   gd87-05-10d2t10.wav
     5:35.60       59235164    ---   --   -----   gd87-05-10d2t11.wav
   148:17.24     1569488216 B                     (totals for 22 files)
Show Checksums
ffp
gd87-05-10d1t01.flac:8b6c4f0eb455bae4bdffeffb2c170b46
gd87-05-10d1t02.flac:ebcf9356d39f7f5cbb43fc72f94fc85d
gd87-05-10d1t03.flac:406f1f222646089a3afc76e80d6a5e1b
gd87-05-10d1t04.flac:c1cc0bae446c77fbda82cd516e834f70
gd87-05-10d1t05.flac:c95aed186b59caec6c8c1fccf9741516
gd87-05-10d1t06.flac:2a0d77e2a5e9b54e205e7bf4f8bbe0d3
gd87-05-10d1t07.flac:b3fc1f4a71f03592760abb49ed2b3ebe
gd87-05-10d1t08.flac:0eff6d5ddc40e4ccd65af1e8a4dd4636
gd87-05-10d1t09.flac:c0912debd764acaafd54d7d2c5f69f5b
gd87-05-10d1t10.flac:5c081eea564e3ce0dfde012f6037f6ba
gd87-05-10d1t11.flac:7a997c73e470cc39a0ef1c90b194b272
gd87-05-10d2t01.flac:b6020c0835d5a949810da968148368f8
gd87-05-10d2t02.flac:869880cfe532ee46a5423c3282a29846
gd87-05-10d2t03.flac:895f4350ef61cc7e8a343ed0cf82c389
gd87-05-10d2t04.flac:8d2f9ab53f0d8bc24797b1837da6c4a0
gd87-05-10d2t05.flac:6b30ffbb7ecf075663782bc5d867e23f
gd87-05-10d2t06.flac:98a78cba3e986a84bce2a9bbf8dfd29e
gd87-05-10d2t07.flac:9259aee066832dd58a9433d18791f9a6
gd87-05-10d2t08.flac:b76c79371230070ccf362e50d270cdf3
gd87-05-10d2t09.flac:b58acd1a80805d8e08fb53c446cc4f4e
gd87-05-10d2t10.flac:d861409cd4dc7398d976748b2eafe6e2
gd87-05-10d2t11.flac:fbeec019fa86a8e38a7f00f7c096242a
flac-md5
df314de8ebf45ee19b92b7053d53da3f *gd87-05-10d1t01.flac
1870f8f9f3f23734ad9bb8dbdbd6e8f2 *gd87-05-10d1t02.flac
b907cd36ea14ad89387855fa0c5b9e1e *gd87-05-10d1t03.flac
d014b65c4716d1b5fab3d723bbbe61e4 *gd87-05-10d1t04.flac
8d42d0e9637effd200c936a723c98946 *gd87-05-10d1t05.flac
feda5cf27a60b38114e4bb74ebdabcd6 *gd87-05-10d1t06.flac
d7d4f776a24565d47d5fe47794cc201d *gd87-05-10d1t07.flac
c87daf2017633ad690db01f035b7ee59 *gd87-05-10d1t08.flac
99719fba95d3dd6e35d7256b76518fb7 *gd87-05-10d1t09.flac
2e0a0cd2d66fd4e999d596d8e6540fc7 *gd87-05-10d1t10.flac
9f0823b1344148a8c1612e5f08ef46b3 *gd87-05-10d1t11.flac
cd93273cb4b3c04651d13f88849407c4 *gd87-05-10d2t01.flac
ac60f00fc46459590c1166ca51727c31 *gd87-05-10d2t02.flac
92fa7c83d87e7c55c70b3b43605e9d28 *gd87-05-10d2t03.flac
77e0276a6c19b5b8e1cc4b9efcbad3d7 *gd87-05-10d2t04.flac
8303cd60f046156aa0c0d20b99665572 *gd87-05-10d2t05.flac
4c3d90807223316dc2507f4e13340439 *gd87-05-10d2t06.flac
cb03fc6b7abca55e32385d6e4a101fcd *gd87-05-10d2t07.flac
4d718a858405e7b1f606a42b111c8500 *gd87-05-10d2t08.flac
c24fc56f4e6305480df390563dba94c4 *gd87-05-10d2t09.flac
12385060768cea6606e3211c48a138ce *gd87-05-10d2t10.flac
3aad791945e7b5e84e9d5cd23dd55554 *gd87-05-10d2t11.flac

Comments
Add Comment
Other Sources (comments)
DSBD> PCM> DAT> zefiro2>... (15) flac16; Hat-Mounted... (0) flac16; PCM... (0) flac24; Recording... (0) flac16; Recording... (0) flac16; Recording... (0)
Date User Comment