Browse Collections Artists Sources   Search Dates

Add Show    List Management    Help


Grateful Dead 06/12/87
Ventura County Fairgrounds, Ventura, CA
Comments Add Comment    Source Collectors    Add to Collection    Add to Want List    History
Source # 83751 Other Sources
Entered by Matt Vernon
Checksums ffp , flac-md5
Disc Counts 2 / 2
Media Size
Date Circulated
Date Added
03/28/2007
03/28/2007
Source Summary flac16; Recording Info: SBD -> Cassette Master (TDK MA-XG90/Sony D5) Transfer Info: Cassette Master (Tascam 122mkII) -> Apogee MiniMe (24bit/48k) -> Samplitude Professional v8.01 -> FLAC/16 All Transfers and Mastering By Charlie Miller 
  Archive
Source Information - Download Text | Download Zip
Grateful Dead - June 12, 1987
County Fairgrounds - Ventura, CA

Recording Info:
SBD -> Cassette Master (TDK MA-XG90/Sony D5)

Transfer Info:
Cassette Master (Tascam 122mkII) -> Apogee MiniMe (24bit/48k) ->
Samplitude Professional v8.01 -> FLAC/16
(2 Discs Audio / 2 Discs FLAC)

All Transfers and Mastering By Charlie Miller
[email protected]
February 16, 2007

Patch Info:
Beyer M160 -> Cassette Master -> CD (By Charlie Connor):
Space (0:02 - 0:11)

Notes:
-- Disc change is seamless
-- Jack Straw patched from 1st Gen Cassette SBD
-- Thanks to Paul Scotton and Joani Walker for the tapes

Set 1:
d1t01 - Jack Straw ->
d1t02 - West L.A. Fadeaway
d1t03 - Mama Tried ->
d1t04 - Big River
d1t05 - Candyman
d1t06 - My Brother Esau
d1t07 - Bird Song
d1t08 - Desolation Row ->
d1t09 - Don't Ease Me In

Set 2:
d1t10 - Tuning
d1t11 - China Cat Sunflower ->
d1t12 - I Know You Rider
d2t01 - Far From Me ->
d2t02 - Man Smart (Woman Smarter) ->
d2t03 - He's Gone ->
d2t04 - Drums ->
d2t05 - Space ->
d2t06 - The Wheel ->
d2t07 - I Need A Miracle ->
d2t08 - Black Peter ->
d2t09 - Around And Around ->
d2t10 - Good Lovin'

Encore:
d2t11 - Touch Of Grey


SHNTOOL OUTPUT:
    length     expanded size   cdr  WAVE problems filename
     5:47.03       61217900    ---   --   -----   gd87-06-12d1t01.wav
     9:34.61      101397116    ---   --   -----   gd87-06-12d1t02.wav
     2:36.52       27640748    ---   --   -----   gd87-06-12d1t03.wav
     6:13.22       65848988    ---   --   -----   gd87-06-12d1t04.wav
     8:09.58       86396060    ---   --   -----   gd87-06-12d1t05.wav
     5:06.04       53987852    ---   --   -----   gd87-06-12d1t06.wav
    12:06.30      128137004    ---   --   -----   gd87-06-12d1t07.wav
     9:21.58       99096860    ---   --   -----   gd87-06-12d1t08.wav
     3:31.34       37300412    ---   --   -----   gd87-06-12d1t09.wav
     1:15.23       13284140    ---   --   -----   gd87-06-12d1t10.wav
     5:22.55       56930204    ---   --   -----   gd87-06-12d1t11.wav
     8:17.42       87769628    ---   --   -----   gd87-06-12d1t12.wav
     4:54.00       51861644    ---   --   -----   gd87-06-12d2t01.wav
     8:25.32       89157308    ---   --   -----   gd87-06-12d2t02.wav
    10:12.47      108067388    ---   --   -----   gd87-06-12d2t03.wav
     7:40.36       81228716    ---   --   -----   gd87-06-12d2t04.wav
     7:24.45       78427484    ---   --   -----   gd87-06-12d2t05.wav
     6:04.13       64240220    ---   --   -----   gd87-06-12d2t06.wav
     4:28.04       47284652    ---   --   -----   gd87-06-12d2t07.wav
     9:06.44       96417932    ---   --   -----   gd87-06-12d2t08.wav
     3:51.41       40844876    ---   --   -----   gd87-06-12d2t09.wav
     7:55.48       83902940    ---   --   -----   gd87-06-12d2t10.wav
     6:08.00       64915244    ---   --   -----   gd87-06-12d2t11.wav
   153:34.02     1625355316 B                     (totals for 23 files)
Show Checksums
ffp
gd87-06-12d1t01.flac:2e0f4bdbb3e5b1e210584dcedb07bb13
gd87-06-12d1t02.flac:679bb3c1ee4ea1e501d01e6c5b112a6f
gd87-06-12d1t03.flac:ae1780bd69b5cabb664f75fd4c9ece97
gd87-06-12d1t04.flac:3bc5a14ac7e1d86c3afe50874b08e45f
gd87-06-12d1t05.flac:ff1795bb78ac3fa30c39837d2d837bca
gd87-06-12d1t06.flac:b28652124fd92c28bf24f9e8de3a3272
gd87-06-12d1t07.flac:66f17d60b16e2a0b8f76dc336f05ac5f
gd87-06-12d1t08.flac:51a9c2d2e7820ea91fb64f54a40fcb96
gd87-06-12d1t09.flac:1485ce198947abb65492f3651a5260f8
gd87-06-12d1t10.flac:1e988430f2ec4f523abc0eb21f34e7fb
gd87-06-12d1t11.flac:95ac7e6489d884a0bea8034e5142df60
gd87-06-12d1t12.flac:3c4ea80dca4425a4aff0efc92d98c8d5
gd87-06-12d2t01.flac:a130533318254b9b65ab293185089439
gd87-06-12d2t02.flac:fc5998425587e90585e5509a3cf3b759
gd87-06-12d2t03.flac:47b91d5b3f349f0a040a2f98b970f244
gd87-06-12d2t04.flac:baf778c0762c22e4546b70d1c2aa5d37
gd87-06-12d2t05.flac:16651402a5dd5a627ec78ee9cd49ae79
gd87-06-12d2t06.flac:bdfdb5459f304bec7a4418573e4e427f
gd87-06-12d2t07.flac:ebe63fe03cb168d906c722250b0210c5
gd87-06-12d2t08.flac:e89ee40c224ed0f40fc37885b025592d
gd87-06-12d2t09.flac:42ff7520fb730da115367c75623c6bf2
gd87-06-12d2t10.flac:536bee5424b1d44e2a0bdc59361d25d0
gd87-06-12d2t11.flac:1e4062220a3ad4b27aead8a00519ab66
flac-md5
adf2ae9614ef4845fd0ef24f03ea363f *gd87-06-12d1t01.flac
b0c2039af6184ad2466670db4b8bb3d7 *gd87-06-12d1t02.flac
bb6b7f6d0c278d9c9c352ad5cded1f17 *gd87-06-12d1t03.flac
92c15daf14fbb7ef2553f4ea7c6c07c0 *gd87-06-12d1t04.flac
706be06b87a0058f9b51a92defc14c74 *gd87-06-12d1t05.flac
30b58edcdd2e0f29d82c708166bd5f58 *gd87-06-12d1t06.flac
716844d1fededc4e65312ba03adef8a2 *gd87-06-12d1t07.flac
237a6448c565eef01b9c3bfd4dc7f9d1 *gd87-06-12d1t08.flac
1b8ca9b841b4d1cdb031e8c493646624 *gd87-06-12d1t09.flac
2ec1aacce40b1c9774a7d1886fbc4e14 *gd87-06-12d1t10.flac
eba4550cb471c2a61ebe703777ddfce1 *gd87-06-12d1t11.flac
0ae80230795fd0dd1a73cfab7af7efdc *gd87-06-12d1t12.flac
532a356cac66bdf22660241bd17cf853 *gd87-06-12d2t01.flac
a1030b895a9edafc553cdc70fc672169 *gd87-06-12d2t02.flac
752e2f1c1a9ee63096d59866e1ffb18c *gd87-06-12d2t03.flac
183cc9e6b37b00f04c9e2cbef35cd9e3 *gd87-06-12d2t04.flac
fafe27b8babaa88365a03fa85cb46780 *gd87-06-12d2t05.flac
16501827bc29138e26555f5044543df4 *gd87-06-12d2t06.flac
3a92e5e55ee06136d3cf72ee6f6896eb *gd87-06-12d2t07.flac
6032f63a82f9735f5916915a638832cf *gd87-06-12d2t08.flac
7666a8eac33e37bd0521becf4d2d1eda *gd87-06-12d2t09.flac
9e513c34878f6e5d7a196836db62a797 *gd87-06-12d2t10.flac
a5ee83666fb3c4dbbeaddb606f657595 *gd87-06-12d2t11.flac

Comments
Add Comment
Other Sources (comments)
FOB-AUD>MC>CDR; Beyer... (0) Master Soundboard Cassette... (0) Bertha Remaster of the... (0) flac16; Source:... (0) flac24/96; Taper:... (0) flac24;... (0) flac24/96 ... (0) flac16/44.1 Source... (2)
Date User Comment