Browse Collections Artists Sources   Search Dates

Add Show    List Management    Help


Grateful Dead 06/13/87
Ventura County Fairgrounds, Ventura, CA
Comments Add Comment    Source Collectors    Add to Collection    Add to Want List    History
Source # 83752 Other Sources
Entered by Matt Vernon
Checksums ffp , flac-md5
Disc Counts 2 / 3
Media Size
Date Circulated
Date Added
03/28/2007
03/28/2007
Source Summary flac16; Recording Info: SBD -> Cassette Master (TDK MA-XG90/Sony D5) Transfer Info: Cassette Master (Tascam 122mkII) -> Apogee MiniMe (24bit/48k) -> Samplitude Professional v8.01 -> FLAC/16 All Transfers and Mastering By Charlie Miller 
  Archive
Source Information - Download Text | Download Zip
Grateful Dead - June 13, 1987
County Fairgrounds - Ventura, CA

Recording Info:
SBD -> Cassette Master (TDK MA-XG90/Sony D5)

Transfer Info:
Cassette Master (Tascam 122mkII) -> Apogee MiniMe (24bit/48k) ->
Samplitude Professional v8.01 -> FLAC/16
(3 Discs Audio / 2 Discs FLAC)

All Transfers and Mastering By Charlie Miller
[email protected]
February 17, 2007

Patch Info:
Schoeps -> PCM -> Dat -> CD supplies:
Mississippi Half-Step Uptown Toodeloo (0:00 - 0:26)
Estimated Prophet (10:17 - 10:20)
Sugar Magnolia (8:06 - 8:10)

Notes:
-- Set 2 is seamless
-- Thanks to Paul Scotton and Joani Walker for the tapes
-- Thanks to David Minches for the patch source

Set 1:
d1t01 - Mississippi Half-Step Uptown Toodeloo
d1t02 - Walkin' Blues
d1t03 - Row Jimmy
d1t04 - When I Paint My Masterpiece
d1t05 - When Push Comes To Shove
d1t06 - Cassidy
d1t07 - Friend Of The Devil ->
d1t08 - Let It Grow

Set 2:
d2t01 - Tuning
d2t02 - Shakedown Street
d2t03 - Saint Of Circumstance ->
d2t04 - Ship Of Fools
d3t01 - Estimated Prophet ->
d3t02 - Eyes Of The World ->
d3t03 - Drums ->
d3t04 - Space ->
d3t05 - The Other One ->
d3t06 - Morning Dew ->
d3t07 - Sugar Magnolia

Encore:
d3t08 - Black Muddy River


SHNTOOL OUTPUT:
    length     expanded size   cdr  WAVE problems filename
     7:51.04       83093852    ---   --   -----   gd87-06-13d1t01.wav
     6:38.04       70216652    ---   --   -----   gd87-06-13d1t02.wav
     9:57.36      105395516    ---   --   -----   gd87-06-13d1t03.wav
     4:30.00       47628044    ---   --   -----   gd87-06-13d1t04.wav
     6:25.22       67965788    ---   --   -----   gd87-06-13d1t05.wav
     7:05.09       74991212    ---   --   -----   gd87-06-13d1t06.wav
     7:44.39       81941372    ---   --   -----   gd87-06-13d1t07.wav
    12:02.14      127393772    ---   --   -----   gd87-06-13d1t08.wav
     0:44.45        7867484    ---   --   -----   gd87-06-13d2t01.wav
    13:59.67      148157228    ---   --   -----   gd87-06-13d2t02.wav
     6:39.59       70522412    ---   --   -----   gd87-06-13d2t03.wav
     8:13.03       86972300    ---   --   -----   gd87-06-13d2t04.wav
    10:38.18      112585580    ---   --   -----   gd87-06-13d3t01.wav
     7:26.16       78712076    ---   --   -----   gd87-06-13d3t02.wav
     7:52.15       83296124    ---   --   -----   gd87-06-13d3t03.wav
     7:33.57       80043308    ---   --   -----   gd87-06-13d3t04.wav
     6:24.23       67791740    ---   --   -----   gd87-06-13d3t05.wav
     9:44.29      103085852    ---   --   -----   gd87-06-13d3t06.wav
    10:37.66      112522076    ---   --   -----   gd87-06-13d3t07.wav
     6:22.11       67410716    ---   --   -----   gd87-06-13d3t08.wav
   158:30.12     1677593104 B                     (totals for 20 files)
Show Checksums
ffp
gd87-06-13d1t01.flac:53b5e9b41189d791589a133673c0a13f
gd87-06-13d1t02.flac:e34827250105cf533c8eaced21e6df37
gd87-06-13d1t03.flac:2b17ddaf5bb87209992e9d9a2d63701d
gd87-06-13d1t04.flac:14dbcf07760a66ec935dc64b988366e9
gd87-06-13d1t05.flac:f6a0c78aee13dcf4d87296a94425a8cb
gd87-06-13d1t06.flac:5c41f483596757d60479692a6e1da853
gd87-06-13d1t07.flac:957c986a581abde282d2d515f2ab5996
gd87-06-13d1t08.flac:0dbba043a8b28e6e1d8be4984c0b2d45
gd87-06-13d2t01.flac:c839e256ec2554ea26b3dc0b823f58b5
gd87-06-13d2t02.flac:8a20b4f0ce62e4dd21f060d83e526229
gd87-06-13d2t03.flac:49bcc91dc900b4b61d071a54ca9b2586
gd87-06-13d2t04.flac:5a2f9e38b458cff31bee182a98050939
gd87-06-13d3t01.flac:4d4e8c9977532fe323ed99c9b4865a13
gd87-06-13d3t02.flac:a586524599f62ea787b044dc2c59ebce
gd87-06-13d3t03.flac:06f6cda7b9805aa6dbba511313540ae4
gd87-06-13d3t04.flac:8acb0a182a0bb375709099269ef64e93
gd87-06-13d3t05.flac:ef8144baeb3373759f5019c27c211365
gd87-06-13d3t06.flac:d6a30aae654e22595501cd6357c804e4
gd87-06-13d3t07.flac:2b248b426d9bd7562fd542cc9daad100
gd87-06-13d3t08.flac:574e0390579e409820dc610a1035422c
flac-md5
3ac9295fcdf4195c95945e6190cd7414 *gd87-06-13d1t01.flac
ad86d34ac3b29548a4904c9bfab7770b *gd87-06-13d1t02.flac
b64fe3a7d2ccdaa603550faf6cdffb20 *gd87-06-13d1t03.flac
c0fc2a55dbbeaef46fbd119bbf56112c *gd87-06-13d1t04.flac
5c05055b9c7cc1d1266cbfefa0d66521 *gd87-06-13d1t05.flac
62196c25148b5b5b9c3869185d033ccf *gd87-06-13d1t06.flac
c805b038626a6eec4a06b0b473877dc5 *gd87-06-13d1t07.flac
90faf99fe6abb846ece53dc7eac9325b *gd87-06-13d1t08.flac
5f0347dc4f4d82aad423eeca80850210 *gd87-06-13d2t01.flac
54778abba4a6b52f6a415674d1ef6bbf *gd87-06-13d2t02.flac
f587479d2c6170c764b64f3400838f7f *gd87-06-13d2t03.flac
39694812d1fb7966a85086f22d3f9fdc *gd87-06-13d2t04.flac
ceb1407bb36c250d55da39ba4aaf3817 *gd87-06-13d3t01.flac
4a7a568fc2cfb38f52908cfbeaa0b6c5 *gd87-06-13d3t02.flac
ab03bf11e0b023660bbe86150a6953ea *gd87-06-13d3t03.flac
ccc2cbc68a5db2d2f6aaa3867def7e21 *gd87-06-13d3t04.flac
b19e2fb2b3ee83a7bf011c8f26a0e54c *gd87-06-13d3t05.flac
230f87cb522e624b0fff6cb6aed18a2c *gd87-06-13d3t06.flac
706031153c704d9cd3545dae1ea793f3 *gd87-06-13d3t07.flac
4fa440b770c4a8c09f468b4393cac3ec *gd87-06-13d3t08.flac

Comments
Add Comment
Other Sources (comments)
Matrix SBD>CASS>DAT>CD; via... (0) Master Soundboard Cassette... (0) flac16; MAC (2 Senn.... (1) flac24; SRC: MAC (2... (1) flac16; Main Source:... (0) flac16; Source:... (0) flac24/96; Source:... (0) flac24;... (0)
Date User Comment