Browse Collections Artists Sources   Search Dates

Add Show    List Management    Help


Grateful Dead 06/14/87
Ventura County Fairgrounds, Ventura, CA
Comments Add Comment    Source Collectors    Add to Collection    Add to Want List    History
Source # 83755 Other Sources
Entered by Matt Vernon
Checksums ffp , flac-md5
Disc Counts 2 / 3
Media Size
Date Circulated
Date Added
03/28/2007
03/28/2007
Source Summary flac16; Recording Info: SBD -> Cassette Master (TDK MA-XG90/Sony D5) Transfer Info: Cassette Master (Tascam 122mkII) -> Apogee MiniMe (24bit/48k) -> Samplitude Professional v8.01 -> FLAC/16 All Transfers and Mastering By Charlie Miller 
  Archive
Source Information - Download Text | Download Zip
Grateful Dead - June 14, 1987
County Fairgrounds - Ventura, CA

Recording Info:
SBD -> Cassette Master (TDK MA-XG90/Sony D5)

Transfer Info:
Cassette Master (Tascam 122mkII) -> Apogee MiniMe (24bit/48k) ->
Samplitude Professional v8.01 -> FLAC/16
(3 Discs Audio / 2 Discs FLAC)

All Transfers and Mastering By Charlie Miller
[email protected]
February 16, 2007

Patch Info:
PCM Audience recording supplies:
Drums (8:30 - 8:43)

Notes:
-- Set 2 is seamless
-- Thanks to Paul Scotton and Joani Walker for the tapes
-- Thanks to David Minches for the patch source

Set 1:
d1t01 - Tuning
d1t02 - Hell In A Bucket ->
d1t03 - Sugaree
d1t04 - Tons Of Steel
d1t05 - Ramble On Rose
d1t06 - Me And My Uncle ->
d1t07 - Mexicali Blues
d1t08 - Althea
d1t09 - Feel Like A Stranger
d1t10 - Might As Well

Set 2:
d2t01 - Scarlet Begonias ->
d2t02 - Fire On The Mountain
d2t03 - Playing In The Band ->
d2t04 - Terrapin Station ->
d2t05 - Drums ->
d3t01 - Space ->
d3t02 - Truckin' ->
d3t03 - Wharf Rat ->
d3t04 - Throwing Stones ->
d3t05 - Not Fade Away

Encore:
d3t06 - The Mighty Quinn (Quinn The Eskimo)


SHNTOOL OUTPUT:
    length     expanded size   cdr  WAVE problems filename
     1:35.40       16852124    ---   --   -----   gd87-06-14d1t01.wav
     5:43.34       60585212    ---   --   -----   gd87-06-14d1t02.wav
    12:24.39      131333372    ---   --   -----   gd87-06-14d1t03.wav
     5:40.52       60098348    ---   --   -----   gd87-06-14d1t04.wav
     7:24.65       78474524    ---   --   -----   gd87-06-14d1t05.wav
     3:10.67       33673628    ---   --   -----   gd87-06-14d1t06.wav
     5:47.07       61227308    ---   --   -----   gd87-06-14d1t07.wav
     8:41.40       91998524    ---   --   -----   gd87-06-14d1t08.wav
     8:24.32       88980908    ---   --   -----   gd87-06-14d1t09.wav
     4:35.41       48606476    ---   --   -----   gd87-06-14d1t10.wav
     8:30.30       90034604    ---   --   -----   gd87-06-14d2t01.wav
     9:59.52      105785948    ---   --   -----   gd87-06-14d2t02.wav
     9:35.27      101493548    ---   --   -----   gd87-06-14d2t03.wav
    10:54.53      115490300    ---   --   -----   gd87-06-14d2t04.wav
     9:43.06      102855356    ---   --   -----   gd87-06-14d2t05.wav
    13:05.41      138570476    ---   --   -----   gd87-06-14d3t01.wav
     6:52.68       72836780    ---   --   -----   gd87-06-14d3t02.wav
     8:25.37       89169068    ---   --   -----   gd87-06-14d3t03.wav
     8:42.46       92189036    ---   --   -----   gd87-06-14d3t04.wav
    12:15.40      129748124    ---   --   -----   gd87-06-14d3t05.wav
     4:25.08       46764860    ---   --   -----   gd87-06-14d3t06.wav
   165:59.00     1756768524 B                     (totals for 21 files)
Show Checksums
ffp
gd87-06-14d1t01.flac:cda1c4dede574e0e57cfc1a95a7f4946
gd87-06-14d1t02.flac:f64c31092858a2f5bde1642f16ef83d7
gd87-06-14d1t03.flac:51e485735db618021b138b964ddcf135
gd87-06-14d1t04.flac:382103c69691b78a4236447830a4f0fd
gd87-06-14d1t05.flac:17129546103720017c20c6889e2fe36d
gd87-06-14d1t06.flac:97d4a44b7a872fe114cfe0346b50249f
gd87-06-14d1t07.flac:9ec256d99f55354e324cf71c07c217a6
gd87-06-14d1t08.flac:b9ae759f6feb2afdcd0487f4ff772dcd
gd87-06-14d1t09.flac:12f34680eac33761a8b352a06a82a111
gd87-06-14d1t10.flac:bee625e40019fdc98f67b45a1655d005
gd87-06-14d2t01.flac:9d77a5160ba5d2085dbff02beda387ba
gd87-06-14d2t02.flac:3f442290c36a93df39558aa3cdef94ea
gd87-06-14d2t03.flac:b2d6e5d692ae19a0c24252685b5748f9
gd87-06-14d2t04.flac:ee586d298782b264ee39010a5d132287
gd87-06-14d2t05.flac:6bc85957d3f4f1797c50d5b05a6a0673
gd87-06-14d3t01.flac:a5603df4d0d836b19f7482cb2c3b95e5
gd87-06-14d3t02.flac:511239281c876c9e151645d11fbee90a
gd87-06-14d3t03.flac:278ee65f6868a8e0697f174cf75ac03b
gd87-06-14d3t04.flac:0d7de19aeb176f8fbcd048412e1ef7c9
gd87-06-14d3t05.flac:2e8a4b678bf52e8a68d0df11214e3e8f
gd87-06-14d3t06.flac:6fac94e88bdc0d48a282d48304159c96
flac-md5
e1cb86fca8a1feb76cabc61421be2ddc *gd87-06-14d1t01.flac
26c1aa11d1e9b156582cf41bc4cb1354 *gd87-06-14d1t02.flac
14ba601052db2b059284b8ab05cac94c *gd87-06-14d1t03.flac
6fb44face1355a8b01fd58f181160434 *gd87-06-14d1t04.flac
b751eef2a6dc559791deeb16aad4eb8f *gd87-06-14d1t05.flac
da7ce984ef12e92d3ec1fb870eebfd5b *gd87-06-14d1t06.flac
f9e29d9a372692ae03f0a869b77d9b56 *gd87-06-14d1t07.flac
1a471d1c6f9556417844d8d12f6083a4 *gd87-06-14d1t08.flac
bdd74b43faf0b416abb1e7cd59a21974 *gd87-06-14d1t09.flac
b02b2efaa583d28303180082aa8dadf8 *gd87-06-14d1t10.flac
72b34269ec269f53a94956fb13be4a44 *gd87-06-14d2t01.flac
36817580b5e6d23cdd8d65430af9c22c *gd87-06-14d2t02.flac
603a2971b5d980c7bd774e3c3a73a0f8 *gd87-06-14d2t03.flac
559f00750c93b4766f110fffa4cd99cd *gd87-06-14d2t04.flac
6400395898c018350acd707f9c285c23 *gd87-06-14d2t05.flac
65e366aa5f9c0870ae79789d4c69226f *gd87-06-14d3t01.flac
32f33b2d5d490872deb5c98832e9fb66 *gd87-06-14d3t02.flac
d51bdd3ec1d84fdc7d665666cbf99916 *gd87-06-14d3t03.flac
d7f12a3e0cb50938b8966588c6884661 *gd87-06-14d3t04.flac
ca4ac8b6514911b86b028152d25934e8 *gd87-06-14d3t05.flac
eac6990fcd423ac9301dfc35b1689935 *gd87-06-14d3t06.flac

Comments
Add Comment
Other Sources (comments)
Master Soundboard Cassette... (0) Matrix SBD>CASS>DAT>CD; via... (1) flac16; Seamless fix... (1) flac16; SRC: MAC (2... (0) flac24; SRC: MAC (2... (0) flac16; Source:... (0) flac24; Source:... (0) flac24;... (0)
Date User Comment