Browse Collections Artists Sources   Search Dates

Add Show    List Management    Help


Grateful Dead 06/20/83
Merriweather Post Pavilion, Columbia, MD
Comments Add Comment    Source Collectors    Add to Collection    Add to Want List    History
Source # 83762 Other Sources
Entered by Matt Vernon
Checksums ffp , flac-md5
Disc Counts 2 / 3
Media Size
Date Circulated
Date Added
03/27/2007
03/29/2007
Source Summary flac16; Source: fob about the 12th row ctr. or so with a sony 939lt stereo - single point mic > d6 taped and transferred by David Minor Lineage: MAC > CD > EAC > Cool Edit Pro > CDWAV > flac16 level 8 encoding etc. by Matt Vernon  
  Archive
Source Information - Download Text | Download Zip
Grateful Dead
Merriweather Post Pavilion
Columbia, MD
Date 6/20/1983

Source: fob about the 12th row ctr. or so with a sony 939lt stereo - single point mic > d6 taped and transferred by David Minor
Lineage: MAC > CD > EAC > Cool Edit Pro > CDWAV > flac16 level 8
Patch Source 1 : Nakamichi 300's > Sony TCD5M > Sony D-6 Maxell XLIIS Master (Dean Grabski recording) shnid 32795
Patch Source 2 (Most of Drums) : FOB-Sennheiser 421>MasterCass>Dat>CD shnid 11931
Conversion tracking etc by Matt Vernon

Set 1
d1t01- Tuning/crowd
d1t02- Minglewood Blues
d1t03- They Love Each Other
d1t04- Little Red Rooster
d1t05- Peggy-O
d1t06- My Brother Esau
d1t07- Tennessee Jed
d1t08- Hell In A Bucket
d1t09- West L.A. Fadeaway
d1t10- The Music Never Stopped

Set 2
d2t01- Tuning/crowd
d2t02- China Cat Sunflower >
d2t03- I Know You Rider
d2t04- Samson & Delilah
d2t05- He's Gone >
d2t06- Truckin' >
d2t07- Drums
d3t01- Space >
d3t02- Little (Bob) Star >
d3t03- The Other One >
d3t04- Wharf Rat >
d3t05- Sugar Magnolia

Encore:
d3t06- It's All Over Now Baby Blue

show notes
- final "Bob Star"
- "Aboriginee dream" rap during "Sugar Magnolia"
- lightning throughout show causes some PA volumne drops

source notes
- volume adjustment at the start of Minglewood (could be PA?)
- tape pause after Peggy-O
- tape flip after My Brother Esau
- minor volume change in West LA near end (could be PA?)
- drop the tuning/crowd track from disk 1 to fit onto 80 minute audio cd
- about 12 secs from patch source 32795 in Truckin' after verses completed
- most of drums from shnid 11931 (this source has left channel limited clipped ),
shnid 32795 also was missing drums "We didn't record drums since that would've taken one extra flip and with the weather"
shnid 32643 was also missing the same segment in drumz not covered by this source and 11931.

    length     expanded size   cdr  WAVE problems filename
     2:06.58       22362860    ---   --   ---xx   gd83-06-20d1t01.flac
     9:04.40       96055724    ---   --   ---xx   gd83-06-20d1t02.flac
    10:34.27      111901148    ---   --   ---xx   gd83-06-20d1t03.flac
    10:04.37      106632668    ---   --   ---xx   gd83-06-20d1t04.flac
     8:35.02       90850748    ---   --   ---xx   gd83-06-20d1t05.flac
     5:07.31       54227756    ---   --   ---xx   gd83-06-20d1t06.flac
    10:01.39      106108172    ---   --   ---xx   gd83-06-20d1t07.flac
     6:54.53       73154300    ---   --   ---xx   gd83-06-20d1t08.flac
     9:08.41       96763676    ---   --   ---xx   gd83-06-20d1t09.flac
     9:06.44       96417932    ---   --   ---xx   gd83-06-20d1t10.flac
    80:43.72      854474984 B                     (totals for 10 files, 0.5725 overall compression ratio)

    length     expanded size   cdr  WAVE problems filename
     0:21.50        3822044    ---   --   ---xx   gd83-06-20d2t01.flac
     8:01.28       84914300    ---   --   ---xx   gd83-06-20d2t02.flac
     6:50.50       72441644    ---   --   ---xx   gd83-06-20d2t03.flac
     9:14.42       97824428    ---   --   ---xx   gd83-06-20d2t04.flac
    12:26.59      131733212    ---   --   ---xx   gd83-06-20d2t05.flac
    10:22.35      109803164    ---   --   ---xx   gd83-06-20d2t06.flac
     7:49.57       82865708    ---   --   ---xx   gd83-06-20d2t07.flac
    55:07.21      583404500 B                     (totals for 7 files, 0.5769 overall compression ratio)

    length     expanded size   cdr  WAVE problems filename
     5:40.49       60091292    ---   --   ---xx   gd83-06-20d3t01.flac
     1:05.35       11548364    ---   --   ---xx   gd83-06-20d3t02.flac
     4:43.15       49956524    ---   --   ---xx   gd83-06-20d3t03.flac
     8:42.40       92174924    ---   --   ---xx   gd83-06-20d3t04.flac
    12:34.04      133015052    ---   --   ---xx   gd83-06-20d3t05.flac
     7:14.08       76576460    ---   --   ---xx   gd83-06-20d3t06.flac
    40:00.01      423362616 B                     (totals for 6 files, 0.5931 overall compression ratio)
Show Checksums
ffp
gd83-06-20d2t01.flac:ee3276fa6bff2ebd6d46ec6be809761b
gd83-06-20d2t02.flac:701bce63ca457699ca0be84edb7075dc
gd83-06-20d2t03.flac:cb46f1320e5b4696a7e03db05351aa8b
gd83-06-20d2t04.flac:dead6fec9005b1ad339c57d04efb8213
gd83-06-20d2t05.flac:16aa1ba86167f78643ce515087c9761a
gd83-06-20d2t06.flac:5f0dabbeeb4f3cd635c66ae09c45177a
gd83-06-20d2t07.flac:bbd4ec4170775a03a6f745498a2f28dc
gd83-06-20d3t01.flac:4ae2d1c5b18c57d1845988601331f59a
gd83-06-20d3t02.flac:beb675726007ecef4a429af935da9d09
gd83-06-20d3t03.flac:499de1ae3c9d341efb66ed8d775b6334
gd83-06-20d3t04.flac:5f4c0fcfacf935daa1cccfaff1d1a7f0
gd83-06-20d3t05.flac:f78d3e579f659c14e50808c18257de63
gd83-06-20d3t06.flac:0648273edc4b83e76571dcdc1d08e030
gd83-06-20d1t01.flac:10a1f7941b423d114d39c6e6a5d6691d
gd83-06-20d1t02.flac:3f584c1e0b907ec7bfd5295da082acde
gd83-06-20d1t03.flac:ef4459c3a8c7274e765c930f301d8953
gd83-06-20d1t04.flac:39e82d3f51d19943ef6cf1787b6fbbf8
gd83-06-20d1t05.flac:4585c999cb567ffb63b2f40b4bb72717
gd83-06-20d1t06.flac:51b31e02778229754469c29b3315a63c
gd83-06-20d1t07.flac:be713ae9254b9dcd0f878d3a8a97fde3
gd83-06-20d1t08.flac:0c864126e5a003fabd7558741deb9dd3
gd83-06-20d1t09.flac:64e6a725052a4f5162d2b84d3e9b06a3
gd83-06-20d1t10.flac:117c473e9fb9994df9d4b8c2de7159b2
flac-md5
e7bc18fe94ca7803db20d15fcf43d375 *gd83-06-20d2t01.flac
3ce247e71ae336bdea83217f6ce93aac *gd83-06-20d2t02.flac
629b07896712f3ccb09b97d86dc3ec38 *gd83-06-20d2t03.flac
37a5c6dcaa3211477c0f795f534d48e4 *gd83-06-20d2t04.flac
389bbfa29573c5c24df6e2d9ac444343 *gd83-06-20d2t05.flac
3349d9d97911dc0e21d88c83ccec9211 *gd83-06-20d2t06.flac
73d66ee85db613296076c7a563e68e34 *gd83-06-20d2t07.flac
fe21e8510bb8fb042a1bd97023926805 *gd83-06-20d3t01.flac
39a6b3d1b4359850e06192178b4495de *gd83-06-20d3t02.flac
b1629790af4bd7e20addb811713b8be7 *gd83-06-20d3t03.flac
f3187a421a94c94e55429bdc74e3947d *gd83-06-20d3t04.flac
305e66ab462220cb1bfe675ce0745277 *gd83-06-20d3t05.flac
fe0786f976ec5ee31d115f64a0d12dd2 *gd83-06-20d3t06.flac
8228bbecdb9317dccf034e7f81f9eaa0 *gd83-06-20d1t01.flac
d3a346de2e9c3f284b14ccaf7694934d *gd83-06-20d1t02.flac
ce3c7950508f13dc17c9fb3e7a048cc7 *gd83-06-20d1t03.flac
8aebd1b7957f47cabf1a29f83b94cadb *gd83-06-20d1t04.flac
09a6ec24aaa23ed70a980007637fa8ae *gd83-06-20d1t05.flac
a7735baf0159f7d49df6e07a3e2114af *gd83-06-20d1t06.flac
c62192a3534834ded97a16147249b903 *gd83-06-20d1t07.flac
15ae412f4cc0a974990cd352d6cdd7f4 *gd83-06-20d1t08.flac
a93c02e239bbda6b994265fd58fdd2f2 *gd83-06-20d1t09.flac
99a3436740c13657193eb1cf8be77130 *gd83-06-20d1t10.flac

Comments
Add Comment
Other Sources (comments)
set 2; Sen. 441 -> D5 ->... (0) Set 1 and Set 2 up to Drums... (8) flac16;... (0) flac16; Source:... (0) flac16; Nakamichi... (0) flac16; source: 2... (0) flac24; source: (3)... (0) flac24; source: nak... (0)
Date User Comment