Browse Collections Artists Sources   Search Dates

Add Show    List Management    Help


Grateful Dead 06/20/87
Greek Theatre, University Of California, Berkeley, CA
Comments Add Comment    Source Collectors    Add to Collection    Add to Want List    History
Source # 83766 Other Sources
Entered by Matt Vernon
Checksums ffp , flac-md5
Disc Counts 2 / 2
Media Size
Date Circulated
Date Added
03/28/2007
03/29/2007
Source Summary flac16; Recording Info: SBD -> Cassette Master (TDK MA-XG90/Sony D5) Transfer Info: Cassette Master (Tascam 122mkII) -> Apogee MiniMe (24bit/48k) -> Samplitude Professional v8.01 -> FLAC/16 All Transfers and Mastering By Charlie Miller 
  Archive
Source Information - Download Text | Download Zip
Grateful Dead - June 20, 1987
Greek Theatre - Berkeley, CA

Recording Info:
SBD -> Cassette Master (TDK MA-XG90/Sony D5)

Transfer Info:
Cassette Master (Tascam 122mkII) -> Apogee MiniMe (24bit/48k) ->
Samplitude Professional v8.01 -> FLAC/16
(2 Discs Audio / 2 Discs FLAC)

All Transfers and Mastering By Charlie Miller
[email protected]
March 3, 2007

Notes:
-- Disc change is seamless
-- Thanks to Paul Scotton and Joani Walker for the tapes

Set 1:
d1t01 - Tuning
d1t02 - Hell In A Bucket ->
d1t03 - Franklin's Tower
d1t04 - New Minglewood Blues
d1t05 - Loser
d1t06 - My Brother Esau
d1t07 - Bird Song

Set 2:
d1t08 - Space ->
d1t09 - Iko Iko
d2t01 - Looks Like Rain
d2t02 - Deal ->
d2t03 - Drums ->
d2t04 - Space ->
d2t05 - Gimme Some Lovin' ->
d2t06 - All Along The Watchtower ->
d2t07 - The Wheel ->
d2t08 - The Other One ->
d2t09 - Wharf Rat ->
d2t10 - Sugar Magnolia

Encore:
d2t11 - Crowd/Tuning
d2t12 - One More Saturday Night


SHNTOOL OUTPUT:
    length     expanded size   cdr  WAVE problems filename
     0:44.18        7803980    ---   --   -----   gd87-06-20d1t01.wav
     6:17.32       66578108    ---   --   -----   gd87-06-20d1t02.wav
     8:55.27       94437548    ---   --   -----   gd87-06-20d1t03.wav
     8:21.62       88522268    ---   --   -----   gd87-06-20d1t04.wav
     8:45.01       92612396    ---   --   -----   gd87-06-20d1t05.wav
     6:00.36       63588716    ---   --   -----   gd87-06-20d1t06.wav
     9:38.68      102119180    ---   --   -----   gd87-06-20d1t07.wav
     1:53.72       20102588    ---   --   -----   gd87-06-20d1t08.wav
     8:42.46       92189036    ---   --   -----   gd87-06-20d1t09.wav
     8:43.45       92363084    ---   --   -----   gd87-06-20d2t01.wav
     6:35.03       69685100    ---   --   -----   gd87-06-20d2t02.wav
    11:01.23      116654540    ---   --   -----   gd87-06-20d2t03.wav
     9:25.69       99828332    ---   --   -----   gd87-06-20d2t04.wav
     4:51.54       51459452    ---   --   -----   gd87-06-20d2t05.wav
     4:39.59       49354412    ---   --   -----   gd87-06-20d2t06.wav
     4:23.52       46515548    ---   --   -----   gd87-06-20d2t07.wav
     5:03.40       53543324    ---   --   -----   gd87-06-20d2t08.wav
     8:52.19       93889532    ---   --   -----   gd87-06-20d2t09.wav
     8:10.08       86454860    ---   --   -----   gd87-06-20d2t10.wav
     2:00.21       21217436    ---   --   -----   gd87-06-20d2t11.wav
     4:47.72       50796188    ---   --   -----   gd87-06-20d2t12.wav
   137:55.02     1459715628 B                     (totals for 21 files)
Show Checksums
ffp
gd87-06-20d1t01.flac:4bfece0d3e207b8ba6e7b74110463009
gd87-06-20d1t02.flac:5ad630156d24553b04d976adde43f746
gd87-06-20d1t03.flac:f6daa58f37cc9a95b530c5c594d57801
gd87-06-20d1t04.flac:e0f33ab94fb1bdfd393d56315c2a6fa9
gd87-06-20d1t05.flac:71aca0f754510058d8cd671e52cbd93a
gd87-06-20d1t06.flac:e93c6adfd90217266ac6c75aedeacf8c
gd87-06-20d1t07.flac:1260de91118273d9126bebbf9df58b69
gd87-06-20d1t08.flac:1979c97b435ebbfc5df7b0ea9ff47b8e
gd87-06-20d1t09.flac:291c7191f4436ad46ce4df81fe4dfa9b
gd87-06-20d2t01.flac:a259b534370c80428523e51bd19f8348
gd87-06-20d2t02.flac:d0589f1c64014b6f10317b4b817111f5
gd87-06-20d2t03.flac:07cce7ef1720a5d17ac0343a3d06a840
gd87-06-20d2t04.flac:e2b8a5104f394d066e98e2ae533be724
gd87-06-20d2t05.flac:96cc2a45ea82905548295b91fdfc86be
gd87-06-20d2t06.flac:79a038e6a559086b53afede8615d8381
gd87-06-20d2t07.flac:fef1b7ddd230c21eebca5b9a6159889e
gd87-06-20d2t08.flac:8d64fab6cbb3fca8a6bb16bb5b5298be
gd87-06-20d2t09.flac:6fb0add4d7b94de0de60f65552201749
gd87-06-20d2t10.flac:8b1691f5e320867bd1a48f131902c55e
gd87-06-20d2t11.flac:96b21ed0ab8bff24097d3d55a9f44e1e
gd87-06-20d2t12.flac:3ed8c9db8bc9f66fa8daf0587f372b2f
flac-md5
adcfc96aa64b57cc469c5475963d78e8 *gd87-06-20d1t01.flac
acc4c2313caa534f49754dfacba42569 *gd87-06-20d1t02.flac
df591413bc8a05175944db4c29e2fd8f *gd87-06-20d1t03.flac
920874d8e41f1c408901e2621a3bf748 *gd87-06-20d1t04.flac
5a77f9b6480c58733571b76388f5ebef *gd87-06-20d1t05.flac
d5ec929977dedaa349b2e4908671f6d6 *gd87-06-20d1t06.flac
37dd6106e6fc2a566125d19f5d2e2196 *gd87-06-20d1t07.flac
1da5ed246fecd7b8420beee1fcd65c17 *gd87-06-20d1t08.flac
4d11578eb41deb39778687f9a150a1a2 *gd87-06-20d1t09.flac
608172c9a3abeebb7616a805e00230ea *gd87-06-20d2t01.flac
3053fc351dbdac9d8ff89e9dfc30ac0d *gd87-06-20d2t02.flac
d32740aaf16b0ba19e9c412064816426 *gd87-06-20d2t03.flac
40199d7315a8b5006ee455b64f1b5410 *gd87-06-20d2t04.flac
656f29544077010d037d0c3fcf6aa815 *gd87-06-20d2t05.flac
6a5a7e02edd7ec73aeb372f9ab5d6eab *gd87-06-20d2t06.flac
1580c419cca8bf56c4c6c278a3558bcd *gd87-06-20d2t07.flac
7e50d1293e89821d28e694e198261cce *gd87-06-20d2t08.flac
3563d16df2f8a3b08109715079625445 *gd87-06-20d2t09.flac
0d7c42a5548174652ab2ccb732a873c8 *gd87-06-20d2t10.flac
8cdebbabe3361e8716b90f44d0b690b2 *gd87-06-20d2t11.flac
28afa026df2c8889ab19747fda1e524e *gd87-06-20d2t12.flac

Comments
Add Comment
Other Sources (comments)
SBD/Matrix>Cm>PCM>DAT>CD;... (0) Master Soundboard Cassette>... (0) flac16; Taped by... (0) flac16; Source:... (0) flac16; Recording... (2) DTS Audio 5.1;... (0) flac24; Taper: Danny... (0) flac16; Taper: Danny... (0) flac24; Source:... (0) flac16; Source: AKG... (0)
Date User Comment