Browse Collections Artists Sources   Search Dates

Add Show    List Management    Help


Grateful Dead 06/21/87
Greek Theatre, University Of California, Berkeley, CA
Comments Add Comment    Source Collectors    Add to Collection    Add to Want List    History
Source # 83767 Other Sources
Entered by Matt Vernon
Checksums ffp , flac-md5
Disc Counts 2 / 3
Media Size
Date Circulated
Date Added
03/28/2007
03/29/2007
Source Summary flac16; Recording Info: SBD -> Cassette Master (TDK MA-XG90/Sony D5) Transfer Info: Cassette Master (Tascam 122mkII) -> Apogee MiniMe (24bit/48k) -> Samplitude Professional v8.01 -> FLAC/16 All Transfers and Mastering By Charlie Miller 
  Archive
Source Information - Download Text | Download Zip
Grateful Dead - June 21, 1987
Greek Theatre - Berkeley, CA

Recording Info:
SBD -> Cassette Master (TDK MA-XG90/Sony D5)

Transfer Info:
Cassette Master (Tascam 122mkII) -> Apogee MiniMe (24bit/48k) ->
Samplitude Professional v8.01 -> FLAC/16
(3 Discs Audio / 2 Discs FLAC)

All Transfers and Mastering By Charlie Miller
[email protected]
March 3, 2007

Patch Info:
AKG 414 -> PCM -> Dat -> Sound Forge -> CD supplies:
Drums (5:57 - 6:19)
Not Fade Away (7:31 - 7:37)

Notes:
-- Set 2 is seamless
-- Thanks to Paul Scotton and Joani Walker for the tapes

Set 1:
d1t01 - Tuning
d1t02 - Alabama Getaway ->
d1t03 - The Promised Land
d1t04 - West L.A. Fadeaway
d1t05 - Walkin' Blues
d1t06 - Far From Me
d1t07 - Cumberland Blues ->
d1t08 - Mexicali Blues
d1t09 - Box Of Rain
d1t10 - Don't Ease Me In

Set 2:
d2t01 - Man Smart (Woman Smarter) ->
d2t02 - Crazy Fingers ->
d2t03 - Saint Of Circumstance ->
d2t04 - China Doll ->
d2t05 - Playing In The Band ->
d2t06 - Drums ->
d3t01 - Space ->
d3t02 - When I Paint My Masterpiece ->
d3t03 - Black Peter ->
d3t04 - Throwing Stones ->
d3t05 - Not Fade Away

Encore:
d3t06 - Brokedown Palace


SHNTOOL OUTPUT:
    length     expanded size   cdr  WAVE problems filename
     2:01.38       21433820    ---   --   -----   gd87-06-21d1t01.wav
     4:34.21       48383036    ---   --   -----   gd87-06-21d1t02.wav
     5:50.12       61768268    ---   --   -----   gd87-06-21d1t03.wav
     8:06.61       85873916    ---   --   -----   gd87-06-21d1t04.wav
     6:59.54       74038652    ---   --   -----   gd87-06-21d1t05.wav
     5:13.30       55283804    ---   --   -----   gd87-06-21d1t06.wav
     5:14.40       55483724    ---   --   -----   gd87-06-21d1t07.wav
     7:00.13       74118620    ---   --   -----   gd87-06-21d1t08.wav
     5:06.33       54056060    ---   --   -----   gd87-06-21d1t09.wav
     3:45.59       39828812    ---   --   -----   gd87-06-21d1t10.wav
     8:46.70       92951084    ---   --   -----   gd87-06-21d2t01.wav
     8:31.54       90267452    ---   --   -----   gd87-06-21d2t02.wav
     7:36.49       80553692    ---   --   -----   gd87-06-21d2t03.wav
     6:34.39       69593372    ---   --   -----   gd87-06-21d2t04.wav
     9:58.34      105567212    ---   --   -----   gd87-06-21d2t05.wav
     8:51.10       93691964    ---   --   -----   gd87-06-21d2t06.wav
    14:00.41      148272476    ---   --   -----   gd87-06-21d3t01.wav
     4:08.64       43897772    ---   --   -----   gd87-06-21d3t02.wav
     8:45.57       92744108    ---   --   -----   gd87-06-21d3t03.wav
     9:29.47      100482188    ---   --   -----   gd87-06-21d3t04.wav
    11:32.41      122165276    ---   --   -----   gd87-06-21d3t05.wav
     5:49.48       61676540    ---   --   -----   gd87-06-21d3t06.wav
   157:59.15     1672131848 B                     (totals for 22 files)
Show Checksums
ffp
gd87-06-21d1t01.flac:14f4955adfa668c6d3ca73c225ae1b6a
gd87-06-21d1t02.flac:2afba556d704dffec5b53c96c0eaec79
gd87-06-21d1t03.flac:597a25a1233ac3eeb525f2d940c545f6
gd87-06-21d1t04.flac:18cdc4b4b1ad695823cc0350bcdee2a5
gd87-06-21d1t05.flac:7d45750e9c8f10482979ead6496640e4
gd87-06-21d1t06.flac:ca5ebaac1ea1e4351dc08033db61f2be
gd87-06-21d1t07.flac:48caccdc7a0e6a8cf2f394124f3c8776
gd87-06-21d1t08.flac:b7fa0f6a41f910f68dc0222d6cf20ea6
gd87-06-21d1t09.flac:38e2430220c166775247ae56cc35e409
gd87-06-21d1t10.flac:7d968ab2d193fab316307ca5212d081a
gd87-06-21d2t01.flac:a656c252505ab6c1387952e174f29481
gd87-06-21d2t02.flac:42f0d9712b2a0a8152c416fcb13bb21a
gd87-06-21d2t03.flac:a5c06e33c2c9ee81bbd0ded1d8677c7d
gd87-06-21d2t04.flac:f2fe65d9b91b8ca7ee4b9f269567ef68
gd87-06-21d2t05.flac:1adba0f4e943bab7c1f3309ccf15b423
gd87-06-21d2t06.flac:16461348ca3742bb7058318a8ab55ebd
gd87-06-21d3t01.flac:c4a7fbbce45438bb33f42aa6bb57849f
gd87-06-21d3t02.flac:9147abc07a50eb3edacf5e5d55532a72
gd87-06-21d3t03.flac:112798682e133f6f542866e88419cbf4
gd87-06-21d3t04.flac:a78774490eb5cce2933c1cc9d8f53e58
gd87-06-21d3t05.flac:da2dd0bbc93d5e243a0406822d62c515
gd87-06-21d3t06.flac:f24fbb1f60c2edcb9a2b18cec9e1a378
flac-md5
7da95adc30255308845d12d459154a9a *gd87-06-21d1t01.flac
1f17ce9c02f66c2f3d8989609496075a *gd87-06-21d1t02.flac
c94f233f14c972b5f26fa160cf816e7d *gd87-06-21d1t03.flac
0338894e37c755f259740f0c3d086b3a *gd87-06-21d1t04.flac
d1ff904a109b4d0f7f65043bd82ff58f *gd87-06-21d1t05.flac
c426e418b8bf5e026b63dfa0944cd15c *gd87-06-21d1t06.flac
b2a08e092e37eabd71f49dab43b9e269 *gd87-06-21d1t07.flac
60573de6d07ea839adf47c7db877afc2 *gd87-06-21d1t08.flac
446904b98b2e41ed02a7a1fafd30d311 *gd87-06-21d1t09.flac
d35c7141769939c0cf9d515ce8471295 *gd87-06-21d1t10.flac
114b43f83641bd149852637677bc3a4f *gd87-06-21d2t01.flac
41091fb5075055f34f1830b8c8c6067f *gd87-06-21d2t02.flac
f83e1dfb17bc82957b1bca6c8be0c746 *gd87-06-21d2t03.flac
4d062e25b63ecd71cb516d8cb40cae91 *gd87-06-21d2t04.flac
27cd993c0a0fa5932fb27dfa5a430605 *gd87-06-21d2t05.flac
5b6b73ecfc6df7f38a59f1963047ceb8 *gd87-06-21d2t06.flac
2373e624262137a894f5dcf8d57aa535 *gd87-06-21d3t01.flac
7dc159d6218ba583a3b6209398725c84 *gd87-06-21d3t02.flac
8b6a50e7bc105073f5badea83d5833a6 *gd87-06-21d3t03.flac
5bce296df6e8e4b2440fb4abb1fcda91 *gd87-06-21d3t04.flac
74377e821367ae75289a8a2b5ce9d35a *gd87-06-21d3t05.flac
21214e3b3d9380af3c1ca9585f6246b5 *gd87-06-21d3t06.flac

Comments
Add Comment
Other Sources (comments)
Missing China Doll & Drums;... (2) 1st Set and Encore: Nak... (0) SBD Source:... (1) flac16; AKG 414 B/TL... (1) flac16; Source:... (0) flac24; Source:... (0) flac16; Source: AKG... (0)
Date User Comment
04/01/2007 mr.halfstep there seems to be two records for this seed. This one (id 83767) and id 83765.
04/01/2007 mr.halfstep nevermind, sorry. spotted the difference in the AUD patch.