Browse Collections Artists Sources   Search Dates

Add Show    List Management    Help


Grateful Dead 04/12/89
Rosemont Horizon, Rosemont, IL
Comments Add Comment    Source Collectors    Add to Collection    Add to Want List    History
Source # 83768 Other Sources
Entered by Matt Vernon
Checksums ffp , flac-md5
Disc Counts 2 / 2
Media Size
Date Circulated
Date Added
03/29/2007
03/29/2007
Source Summary flac16; Recording Info: SBD -> Cassette Master (TDK MA-XG90) Transfer Info: Cassette Master (Tascam 122mkII) -> Apogee MiniMe (24bit/48k) -> Samplitude Professional v8.01 -> FLAC/16 All Transfers and Mastering By Charlie Miller 
  Archive
Source Information - Download Text | Download Zip
Grateful Dead - April 12, 1989
Rosemont Horizon Arena - Rosemont, IL

Recording Info:
SBD -> Cassette Master (TDK MA-XG90)

Transfer Info:
Cassette Master (Tascam 122mkII) -> Apogee MiniMe (24bit/48k) ->
Samplitude Professional v8.01 -> FLAC/16
(2 Discs Audio / 2 Discs FLAC)

All Transfers and Mastering By Charlie Miller
[email protected]
January 28, 2007

Patch Info:
(2) Nakamichi 300/CP4 + (2) Sennheiser 441 -> Cassette Master -> CD
Space (1:39 - 1:56)

Notes:
-- Encore moved to end of 1st set to fit show onto 2 discs
-- 2nd Set and Encore can be re-joined seamlessly
-- Thanks to Paul Scotton and Joani Walker for the tapes
-- Patch source recorded By Steve Cherson

Set 1:
d1t01 - Tuning
d1t02 - Jack Straw
d1t03 - Row Jimmy
d1t04 - New Minglewood Blues
d1t05 - Tennessee Jed
d1t06 - When I Paint My Masterpiece
d1t07 - Cumberland Blues
d1t08 - Let It Grow

Set 2:
d2t01 - Touch Of Grey ->
d2t02 - Truckin' ->
d2t03 - Smokestack Lightnin' ->
d2t04 - Spoonful ->
d2t05 - Smokestack Lightnin' ->
d2t06 - He's Gone ->
d2t07 - Drums ->
d2t08 - Space ->
d2t09 - I Will Take You Home ->
d2t10 - All Along The Watchtower ->
d2t11 - Wharf Rat ->
d2t12 - Turn On Your Lovelight

Encore:
d1t09 - Crowd/Tuning
d1t10 - Black Muddy River


SHNTOOL OUTPUT:
    length     expanded size   cdr  WAVE problems filename
     1:25.44       15097532    ---   --   -----   gd89-04-12d1t01.wav
     5:38.25       59682044    ---   --   -----   gd89-04-12d1t02.wav
    11:54.57      126083708    ---   --   -----   gd89-04-12d1t03.wav
     7:58.71       84486236    ---   --   -----   gd89-04-12d1t04.wav
     8:16.27       87557948    ---   --   -----   gd89-04-12d1t05.wav
     6:49.39       72239372    ---   --   -----   gd89-04-12d1t06.wav
     5:24.08       57172460    ---   --   -----   gd89-04-12d1t07.wav
    12:28.65      132100124    ---   --   -----   gd89-04-12d1t08.wav
     0:45.73        8109740    ---   --   -----   gd89-04-12d1t09.wav
     6:36.62       70000268    ---   --   -----   gd89-04-12d1t10.wav
     7:14.19       76602332    ---   --   -----   gd89-04-12d2t01.wav
     6:20.03       67039100    ---   --   -----   gd89-04-12d2t02.wav
     3:01.24       31984892    ---   --   -----   gd89-04-12d2t03.wav
     4:08.67       43904828    ---   --   -----   gd89-04-12d2t04.wav
     0:38.15        6738524    ---   --   -----   gd89-04-12d2t05.wav
    14:53.25      157584044    ---   --   -----   gd89-04-12d2t06.wav
     9:00.09       95277212    ---   --   -----   gd89-04-12d2t07.wav
     8:51.65       93821324    ---   --   -----   gd89-04-12d2t08.wav
     3:55.14       41486972    ---   --   -----   gd89-04-12d2t09.wav
     5:25.08       57348860    ---   --   -----   gd89-04-12d2t10.wav
     9:44.24      103074092    ---   --   -----   gd89-04-12d2t11.wav
     6:34.63       69649820    ---   --   -----   gd89-04-12d2t12.wav
   147:06.57     1557041432 B                     (totals for 22 files)
Show Checksums
ffp
gd89-04-12d1t01.flac:5c0d337ea2b8915105d38e75ab35dcf0
gd89-04-12d1t02.flac:9233fa4d7f996cf55ef56e055ba45200
gd89-04-12d1t03.flac:25e684852aaf5318ac7f1012021b3721
gd89-04-12d1t04.flac:a4e8fb7a6dd3d0661254db069058e682
gd89-04-12d1t05.flac:7ce24825307d25f83e4ee2d1ca470a26
gd89-04-12d1t06.flac:b4d95c2ce60c1b58bcab2ee13ade7b6c
gd89-04-12d1t07.flac:8c4ca60382ca8115f0c9091e6405de55
gd89-04-12d1t08.flac:c9d78a391709e1437ebb2341dcc236f8
gd89-04-12d1t09.flac:dd18174aaa3ce492e0d351b7c030d08e
gd89-04-12d1t10.flac:ec708be099c8423e8e60d3eb8c7b4df9
gd89-04-12d2t01.flac:1b4ed665fff45fc4c1ebf2a21dd27c92
gd89-04-12d2t02.flac:0ac1be9a075954f27214c376ddea2de3
gd89-04-12d2t03.flac:53843fb3669dff17fa0ebc3cbec2db9b
gd89-04-12d2t04.flac:d2d7fef247f8d037f392e4fbacfbea9c
gd89-04-12d2t05.flac:4b9ca714b613164c1832671358055324
gd89-04-12d2t06.flac:a95e563a82a426ead707a6f8543dacad
gd89-04-12d2t07.flac:c43fb65ea20deea2e856cb60f62bfd0b
gd89-04-12d2t08.flac:9bb2736b00cd614c874e7ebeb64f90b8
gd89-04-12d2t09.flac:0ddc87bf1b41c93c14be63c92ba8acfa
gd89-04-12d2t10.flac:ab936e1d44101932d0dbd664655ec58b
gd89-04-12d2t11.flac:8790ec597b4e5258ae66f2dca9812da5
gd89-04-12d2t12.flac:6ff46a0ae0be0820bc49a113c3f8601f
flac-md5
a791db4cd111094bde751e8fe96b9038 *gd89-04-12d1t01.flac
4b5f116db55ffe756dc9232c707def24 *gd89-04-12d1t02.flac
c255dba85e4e112d3f989c1f855dc9fd *gd89-04-12d1t03.flac
609c222610661244687b9e8292106eb9 *gd89-04-12d1t04.flac
a48179559f2e898862597aff5f61ad4e *gd89-04-12d1t05.flac
4c3373645d9b06bfe38a6e0833deede0 *gd89-04-12d1t06.flac
1f7c62fe7e278b14d6d9b64f89f25d30 *gd89-04-12d1t07.flac
cdfb7af9f562377f24781dbb5c8efcde *gd89-04-12d1t08.flac
30e499028cce0ab6147a27256e28d41b *gd89-04-12d1t09.flac
9a8cb637fbd75fac450fe992a8762dac *gd89-04-12d1t10.flac
a71e8f292767bdec767b6bd796e2e7d9 *gd89-04-12d2t01.flac
0603e95928950a17245c6e521f939257 *gd89-04-12d2t02.flac
58642ae4f5bc3b5cd81f12ab5882b0c9 *gd89-04-12d2t03.flac
e9c500b5f8439a32e1c17d3219f70969 *gd89-04-12d2t04.flac
9a2dbfbd79149bb730de71ec84025cd0 *gd89-04-12d2t05.flac
f2a03a8342a54638b6b1379ba61780ec *gd89-04-12d2t06.flac
b3e2d3b500a6c6820b1dbbc6a9185bec *gd89-04-12d2t07.flac
e76096ad5f71e14c2d6abcbc3818cc39 *gd89-04-12d2t08.flac
3d8dad5bebcb9ca784476a63c7f27694 *gd89-04-12d2t09.flac
1e8437ec5c9e6aa497cd52ba4745a283 *gd89-04-12d2t10.flac
2c69184da50ca318d59571e50c17022e *gd89-04-12d2t11.flac
7822d8ea7681da975fa7f3d605ea2352 *gd89-04-12d2t12.flac

Comments
Add Comment
Other Sources (comments)
Ultramatrix (SBD/AUD mix)>... (1) Shntool fix by-disc by... (0) likely by-set shntool fix... (1) flac16; Source:... (0) flac16; Master... (0) flac24; Master... (1) flac16; Set 2 Source... (0)
Date User Comment