Browse Collections Artists Sources   Search Dates

Add Show    List Management    Help


Grateful Dead 04/13/89
Rosemont Horizon, Rosemont, IL
Comments Add Comment    Source Collectors    Add to Collection    Add to Want List    History
Source # 83769 Other Sources
Entered by Matt Vernon
Checksums ffp , flac-md5
Disc Counts 2 / 2
Media Size
Date Circulated
Date Added
03/29/2007
03/29/2007
Source Summary flac16; Recording Info: SBD -> Cassette Master (TDK MA-XG90) Transfer Info: Cassette Master (Tascam 122mkII) -> Apogee MiniMe (24bit/48k) -> Samplitude Professional v8.01 -> FLAC/16 All Transfers and Mastering By Charlie Miller 
  Archive
Source Information - Download Text | Download Zip
Grateful Dead - April 13, 1989
Rosemont Horizon Arena - Rosemont, IL

Recording Info:
SBD -> Cassette Master (TDK MA-XG90)

Transfer Info:
Cassette Master (Tascam 122mkII) -> Apogee MiniMe (24bit/48k) ->
Samplitude Professional v8.01 -> FLAC/16
(2 Discs Audio / 2 Discs FLAC)

All Transfers and Mastering By Charlie Miller
[email protected]
Feruary 5, 2007

Patch Info:
(2) Nakamichi 300/CP4 + (2) Sennheiser 441 -> Cassette Master -> CD
Don't Ease Me In (0:14 - 0:15)
The Wheel (0:00 - 0:06)

Notes:
-- Encore moved to end of 1st Set to fit show onto 2 discs
-- 2nd Set and Encore can be re-joined seamlessly
-- Thanks to Paul Scotton and Joani Walker for the tapes
-- Patch source recorded By Steve Cherson

Set 1:
d1t01 - Iko Iko
d1t02 - Greatest Story Ever Told
d1t03 - Peggy-O
d1t04 - It's All Over Now
d1t05 - To Lay Me Down
d1t06 - Cassidy ->
d1t07 - Don't Ease Me In

Set 2:
d2t01 - Foolish Heart ->
d2t02 - Looks Like Rain ->
d2t03 - Eyes Of The World ->
d2t04 - Drums ->
d2t05 - Space ->
d2t06 - The Wheel ->
d2t07 - I Need A Miracle ->
d2t08 - Dear Mr. Fantasy ->
d2t09 - Hey Jude ->
d2t10 - Goin' Down The Road Feeling Bad ->
d2t11 - Good Lovin'

Encore:
d1t08 - Crowd/Tuning
d1t09 - It's All Over Now, Baby Blue


SHNTOOL OUTPUT:
    length     expanded size   cdr  WAVE problems filename
     7:16.09       76931612    ---   --   -----   gd89-04-13d1t01.wav
     5:02.20       53319884    ---   --   -----   gd89-04-13d1t02.wav
     6:41.32       70811708    ---   --   -----   gd89-04-13d1t03.wav
     9:53.15      104640524    ---   --   -----   gd89-04-13d1t04.wav
     8:48.07       93155708    ---   --   -----   gd89-04-13d1t05.wav
     6:23.20       67608284    ---   --   -----   gd89-04-13d1t06.wav
     3:39.25       38690444    ---   --   -----   gd89-04-13d1t07.wav
     0:13.42        2392028    ---   --   -----   gd89-04-13d1t08.wav
     7:30.55       79509404    ---   --   -----   gd89-04-13d1t09.wav
     9:17.20       98301884    ---   --   -----   gd89-04-13d2t01.wav
     8:15.38       87407420    ---   --   -----   gd89-04-13d2t02.wav
    11:42.22      123884588    ---   --   -----   gd89-04-13d2t03.wav
     8:59.59       95218412    ---   --   -----   gd89-04-13d2t04.wav
     8:44.63       92581820    ---   --   -----   gd89-04-13d2t05.wav
     5:02.30       53343404    ---   --   -----   gd89-04-13d2t06.wav
     4:06.16       43432076    ---   --   -----   gd89-04-13d2t07.wav
     4:53.70       51849884    ---   --   -----   gd89-04-13d2t08.wav
     2:33.53       27113900    ---   --   -----   gd89-04-13d2t09.wav
     5:30.32       58287308    ---   --   -----   gd89-04-13d2t10.wav
     7:00.50       74205644    ---   --   -----   gd89-04-13d2t11.wav
   131:35.03     1392685936 B                     (totals for 20 files)
Show Checksums
ffp
gd89-04-13d1t01.flac:cbf0465bee3125b712a28271f2f7ea89
gd89-04-13d1t02.flac:92f9a5192f448d8aeef7c2d5d68da91d
gd89-04-13d1t03.flac:1c2493ea1553b58c078a2469209b5c8e
gd89-04-13d1t04.flac:f1b43dde2b45f9dffa1fdc47b89d83f1
gd89-04-13d1t05.flac:e9e238c2b3f42e4d638f721fed19efdf
gd89-04-13d1t06.flac:c0424adc6f1545978df442a225f47a9d
gd89-04-13d1t07.flac:7385ff64de55211d828a2595c3a67447
gd89-04-13d1t08.flac:88f8e36ba68cd3188ca4bf75310f7097
gd89-04-13d1t09.flac:a13115b5a5243170338ce4ab1d7cfad0
gd89-04-13d2t01.flac:6e902211e1d48e6588f7ad80885639da
gd89-04-13d2t02.flac:9afc0406d8297a56ccf6f519c6c25660
gd89-04-13d2t03.flac:ca57be65c22824aad1cc81f9cfdf9665
gd89-04-13d2t04.flac:e057fa04523ccc02b4a40a2dbb9a1d86
gd89-04-13d2t05.flac:416487f586ec2476cf1819a6f1468dff
gd89-04-13d2t06.flac:22cbddfde09bfc721b180d3bb9b2ef1e
gd89-04-13d2t07.flac:bdb5a3242dbcfcf1d8f30fa4f416c4d2
gd89-04-13d2t08.flac:999ef193a2d6deb38ee7774bc5e626a9
gd89-04-13d2t09.flac:a287794f9bcea88006068f720974fdf2
gd89-04-13d2t10.flac:418dbdf12e4eaace7d0c2084506e0053
gd89-04-13d2t11.flac:00bb80dc4eb8c66eb3331206d755fd2a
flac-md5
6306624235d8ab1474f5eb79af774821 *gd89-04-13d1t01.flac
b9d26c5d32ff4ec15fdbd04cfa4f8392 *gd89-04-13d1t02.flac
6d95a9e1542d2c6ec83c9196157d303d *gd89-04-13d1t03.flac
175922147af1296a553c8556f1aec4ca *gd89-04-13d1t04.flac
a078f6ab1b9b96449bc2edd13563a1a4 *gd89-04-13d1t05.flac
c5dc0547f7c7e77e3cae5c423cc9fc20 *gd89-04-13d1t06.flac
05941b091045254ec2543822cbcffc86 *gd89-04-13d1t07.flac
2b416409d8c65139a773bed691ffac15 *gd89-04-13d1t08.flac
7eeabea270134dac9c010165644fbb65 *gd89-04-13d1t09.flac
130f32451cbaa071f13044fd4bbb7472 *gd89-04-13d2t01.flac
50e9c22c00d68bfbf7871bd9d908d152 *gd89-04-13d2t02.flac
43836200ee73bb2740bc54af937355a8 *gd89-04-13d2t03.flac
1f5648eb073dee8b47360ed409e4a1b5 *gd89-04-13d2t04.flac
af966aeccaf0053d3290b1ca5f296f22 *gd89-04-13d2t05.flac
b0d95b32a9677daf2e342feb2c767cdf *gd89-04-13d2t06.flac
c0e7f3b4a93f031518614050e8f48911 *gd89-04-13d2t07.flac
f1e0560d90cd81346b0d4726a0ad9e70 *gd89-04-13d2t08.flac
e652a845f5b81f0c1944cbc2aa6b69bd *gd89-04-13d2t09.flac
f4ac208a5191faa95460409f47272fc6 *gd89-04-13d2t10.flac
6afcb04a73b1d1deed28490f0b210096 *gd89-04-13d2t11.flac

Comments
Add Comment
Other Sources (comments)
SBD > MC > Dat > CDR > EAC... (3) flac24; Master... (0) flac16; Master... (0) flac16; Source:... (0) flac16; Source Info:... (0)
Date User Comment