Browse Collections Artists Sources   Search Dates

Add Show    List Management    Help


Grateful Dead 04/05/89
Crisler Arena, Ann Arbor, MI
Comments Add Comment    Source Collectors    Add to Collection    Add to Want List    History
Source # 83800 Other Sources
Entered by Matt Vernon
Checksums ffp , flac-md5
Disc Counts 2 / 3
Media Size
Date Circulated
Date Added
03/31/2007
04/01/2007
Source Summary flac16; source: aud > Nak 300 shotguns > WMD-6 > mac taped by John Bleich transfer: mac > AIWA HX PRO AD-F410 > Creative Extigy > Wavelab > wav > flac transfered at 24/48, downsampled to 16/44.1 and dithered with iZotope Ozone 
  Archive
Source Information - Download Text | Download Zip
Grateful Dead
Chrysler Arena
University Of Michigan
Ann Arbor, MI
04/05/89

source: aud > Nak 300 shotguns > WMD-6 > mac
taped by John Bleich

transfer: mac > AIWA HX PRO AD-F410 > Creative Extigy > Wavelab > wav > flac transfered at 24/48, downsampled to 16/44.1 and dithered with iZotope Ozone

Disc 1
set I

01   tuning
02   Feel Like A Stranger >
03   Franklin's Tower
04   tuning
05   New Minglewood Blues
06   tuning
07   Candyman
08   Stuck In Mobile With The Memphis Blues Again
09   Far From Me
10   Dupree's Diamond Blues
11   Let It Grow >
12   U.S. Blues

Disc 2
set II

01   Finiculi Funicular tuning >
02   Samson and Delilah
03   Cumberland Blues
04   Man Smart, Woman Smarter
05   Terrapin Station >
06   Drums >

Disc 3
set II con't'd

01   Space >
02   China Doll >
03   Throwing Stones >
04   Not Fade Away

encore

05   The Mighty Quinn (Quinn The Eskimo)



Many thanks to John for lending me his tapes.

notes:

- tape flips in the transition Drums > Space  and in the NFA chant have been crossfaded.
  There is very little missing.
- seamless join between d2 & d3
- mastered with iZotope Ozone and TC Works Native Dex


transfer, editing and mastering
SIRMick
March 2007


shntool output:

    length     expanded size   cdr  WAVE problems filename
     1:42.41       18089276    ---   --   ---xx   gd1989-04-05d1t01.flac
     8:14.16       87179276    ---   --   ---xx   gd1989-04-05d1t02.flac
     9:00.56       95387756    ---   --   ---xx   gd1989-04-05d1t03.flac
     1:21.14       14321372    ---   --   ---xx   gd1989-04-05d1t04.flac
     7:21.10       77815964    ---   --   ---xx   gd1989-04-05d1t05.flac
     1:03.27       11176748    ---   --   ---xx   gd1989-04-05d1t06.flac
     7:33.66       80064476    ---   --   ---xx   gd1989-04-05d1t07.flac
     9:26.17       99882428    ---   --   ---xx   gd1989-04-05d1t08.flac
     5:39.19       59844332    ---   --   ---xx   gd1989-04-05d1t09.flac
     5:51.12       61944668    ---   --   ---xx   gd1989-04-05d1t10.flac
    11:41.14      123689372    ---   --   ---xx   gd1989-04-05d1t11.flac
     5:26.68       57666380    ---   --   ---xx   gd1989-04-05d1t12.flac
     2:25.49       25693292    ---   --   ---xx   gd1989-04-05d2t01.flac
     6:58.07       73751708    ---   --   ---xx   gd1989-04-05d2t02.flac
     6:01.71       63847436    ---   --   ---xx   gd1989-04-05d2t03.flac
     6:47.64       71945372    ---   --   ---xx   gd1989-04-05d2t04.flac
    12:27.70      131935484    ---   --   ---xx   gd1989-04-05d2t05.flac
    10:21.54      109671452    ---   --   ---xx   gd1989-04-05d2t06.flac
     8:01.28       84914300    ---   --   ---xx   gd1989-04-05d3t01.flac
     7:05.54       75097052    ---   --   ---xx   gd1989-04-05d3t02.flac
     9:45.54      103321052    ---   --   ---xx   gd1989-04-05d3t03.flac
    12:01.70      127349084    ---   --   ---xx   gd1989-04-05d3t04.flac
     4:37.37       48949868    ---   --   ---xx   gd1989-04-05d3t05.flac
   160:57.18     1703538148 B                     (totals for 23 files, 0.5542 overall compression ratio)

Show Checksums
ffp
gd1989-04-05d1t01.flac:57b46639317ed5397e78483ae7d1f1ad
gd1989-04-05d1t02.flac:42f19bcfc93361ff5f1da2d8e062d172
gd1989-04-05d1t03.flac:15a188c962d57d49f7137c70b2d27618
gd1989-04-05d1t04.flac:5374cd11187981a791695f9b2ae700da
gd1989-04-05d1t05.flac:2640479edd105786aaa8b37a87232654
gd1989-04-05d1t06.flac:c5b9a0068c156b6b496ee239ff657c3c
gd1989-04-05d1t07.flac:0dc62bdf881a679f5fbb7feab98ac7f6
gd1989-04-05d1t08.flac:de2e17598af54cdab555e81af70a9a15
gd1989-04-05d1t09.flac:0e0ca2ffbfb906ab74c36f29413f944b
gd1989-04-05d1t10.flac:27732b6b6bf64503431bd62860212dd6
gd1989-04-05d1t11.flac:d303992e59dd049b972693b9d505f67e
gd1989-04-05d1t12.flac:d3339892bebabe4357ee5c3576dc3ff7
gd1989-04-05d2t01.flac:d56e9ef524e45d9e74f0e8db4986efd2
gd1989-04-05d2t02.flac:44120969784e865dac05948a386700dd
gd1989-04-05d2t03.flac:f545288720505ba9ae2adfe863075a75
gd1989-04-05d2t04.flac:bfa9d0072433795a5a6b25caa102315d
gd1989-04-05d2t05.flac:e4b85102343d44572a2f9f31b897047d
gd1989-04-05d2t06.flac:aa723ef473e90a6421161cf87c81c4b7
gd1989-04-05d3t01.flac:4d453a866b9c4bb7d93789a24a8484a5
gd1989-04-05d3t02.flac:665a832dac1419ca231c927c5129da87
gd1989-04-05d3t03.flac:ec6d7d62a4c3920eb1edde19d6df3414
gd1989-04-05d3t04.flac:ba0021f5c99ec6783affe9e6e69fea5a
gd1989-04-05d3t05.flac:c62af6ba0a831c3fd6128150efb83745
flac-md5
1c5fc3eccbd8d3f6515a93f6dc317d69 *gd1989-04-05d1t01.flac
6283c037cb384a518b026b405b190100 *gd1989-04-05d1t02.flac
46e4655d8ae4cc26fc4091ecba32608a *gd1989-04-05d1t03.flac
ed86425e90b72b516ce1d916443e7f38 *gd1989-04-05d1t04.flac
51ae0da35e2e2d75f3fc7571f376c53e *gd1989-04-05d1t05.flac
29b5184888580939896968205a4e4f78 *gd1989-04-05d1t06.flac
1331f23f1c11c9678f7ce42ce4f559b1 *gd1989-04-05d1t07.flac
57803a6110cd440b46dfd65668c15685 *gd1989-04-05d1t08.flac
f4622f3b886670bceb3ff86f87260618 *gd1989-04-05d1t09.flac
905f9ec5a68b64ed822c35924aa4a211 *gd1989-04-05d1t10.flac
27285b364b9331ada04e5478f72a1134 *gd1989-04-05d1t11.flac
fa439bdc2c8322cb984d44bee780a138 *gd1989-04-05d1t12.flac
9ccb4d299e876939d69761f9abe2e52e *gd1989-04-05d2t01.flac
3dd5127d3394d55fad9c652be5a65a9d *gd1989-04-05d2t02.flac
911f1c9c2bd9d30cfd8e25419249cd78 *gd1989-04-05d2t03.flac
866bd9ea2a6c3184f991cc85ed605c6f *gd1989-04-05d2t04.flac
d244ab3af423dc4a19f586abbc8c2b8c *gd1989-04-05d2t05.flac
800dc2ab906d52973ea82c1463a8322b *gd1989-04-05d2t06.flac
065a671e73ff689c7925e18b472fe2e6 *gd1989-04-05d3t01.flac
4c88b420b28472f6dcdcc3f4e3b6d4c0 *gd1989-04-05d3t02.flac
7e45c79162ca92d6cdf9b3a1e0ebaab8 *gd1989-04-05d3t03.flac
5a6b39511dbc1a9c7cdaf6c9249d2cf9 *gd1989-04-05d3t04.flac
7943dca79a3904bed7078247ce061e3c *gd1989-04-05d3t05.flac

Comments
Add Comment
Other Sources (comments)
Healy Ultra Mix - sbd+aud>... (2) Healy Ultra Mix Cassette... (0) flac16; Recording... (0) flac16; Taper: Greg... (0) flac16; Recorded &... (0) flac16; Source Info:... (0)
Date User Comment