Browse Collections Artists Sources   Search Dates

Add Show    List Management    Help


Grateful Dead 04/06/89
Crisler Arena, Ann Arbor, MI
Comments Add Comment    Source Collectors    Add to Collection    Add to Want List    History
Source # 83801 Other Sources
Entered by Matt Vernon
Checksums ffp , flac-md5
Disc Counts 2 / 3
Media Size
Date Circulated
Date Added
03/31/2007
04/01/2007
Source Summary flac16; source: aud > Nak 300 shotguns > WMD-6 > mac taped by John Bleich transfer: mac > AIWA HX PRO AD-F410 > Creative Extigy > Wavelab > wav > flac transfered at 24/48, downsampled to 16/44.1 and dithered with iZotope Ozone 
  Archive
Source Information - Download Text | Download Zip
Grateful Dead
Chrysler Arena
University Of Michigan
Ann Arbor, MI
04/06/89


source: aud > Nak 300 shotguns > WMD-6 > mac
taped by John Bleich

transfer: mac > AIWA HX PRO AD-F410 > Creative Extigy > Wavelab > wav > flac
transfered at 24/48, downsampled to 16/44.1 and dithered with iZotope Ozone


Disc 1
set I

01   tuning
02   Touch Of Gray
03   Little Red Rooster
04   tuning
05   Brown Eyed Women
06   tuning
07   Mama Tried >
08   Mexicali Blues
09   tuning
10   Althea
11   When I Paint My Masterpiece
12   Bird Song >
13   The Promised Land

Disc 2
set II

01   tuning
02   Scarlet Begonias >
03   Fire On The Mountain
04   tuning
05   Playing In The Band >
06   Built To Last >
07   Drums >

Disc 3
set II cont'd

01   Space >
02   I Will Take You Home >
03   The Other One >
04   Wharf Rat >
05   Around and Around >
06   Playing In The Band Reprise

encore:
missing   Brokedown Palace


Many thanks to John for lending me his tapes.

notes:

- tape flip in Drums cross faded
- heavy burst of static right channel  in Playin' reduced so that it is now acceptable
- several large pops and some small dropouts removed from d2 & d3
- seamless join between d2 & d3
- mastered with iZotope Ozone and TC Works Native Dex


transfer, editing and mastering
SIRMick
March 2007


shntool output:

    length     expanded size   cdr  WAVE problems filename
     2:21.42       24971228    ---   --   ---xx   gd1989-04-06d1t01.flac
     6:15.46       66258236    ---   --   ---xx   gd1989-04-06d1t02.flac
     9:15.66       98057276    ---   --   ---xx   gd1989-04-06d1t03.flac
     1:36.07       16950908    ---   --   ---xx   gd1989-04-06d1t04.flac
     4:56.69       52376732    ---   --   ---xx   gd1989-04-06d1t05.flac
     0:58.32       10306508    ---   --   ---xx   gd1989-04-06d1t06.flac
     2:34.70       27330284    ---   --   ---xx   gd1989-04-06d1t07.flac
     4:55.11       52063916    ---   --   ---xx   gd1989-04-06d1t08.flac
     0:56.04        9887852    ---   --   ---xx   gd1989-04-06d1t09.flac
     7:00.01       74090396    ---   --   ---xx   gd1989-04-06d1t10.flac
     5:04.17       53665628    ---   --   ---xx   gd1989-04-06d1t11.flac
     1:14.19       13098332    ---   --   ---xx   gd1989-04-06d1t12.flac
    13:08.02      139007948    ---   --   ---xx   gd1989-04-06d1t13.flac
     4:34.48       48446540    ---   --   ---xx   gd1989-04-06d1t14.flac
     1:37.60       17251964    ---   --   ---xx   gd1989-04-06d2t01.flac
     9:28.05      100207004    ---   --   ---xx   gd1989-04-06d2t02.flac
    12:11.19      128993132    ---   --   ---xx   gd1989-04-06d2t03.flac
     1:34.08       16600460    ---   --   ---xx   gd1989-04-06d2t04.flac
    12:36.47      133468988    ---   --   ---xx   gd1989-04-06d2t05.flac
     7:33.43       80010380    ---   --   ---xx   gd1989-04-06d2t06.flac
     9:35.30      101500604    ---   --   ---xx   gd1989-04-06d2t07.flac
     7:22.10       77992364    ---   --   ---xx   gd1989-04-06d3t01.flac
     4:05.40       43312124    ---   --   ---xx   gd1989-04-06d3t02.flac
     7:45.02       82030748    ---   --   ---xx   gd1989-04-06d3t03.flac
     9:50.08      104094860    ---   --   ---xx   gd1989-04-06d3t04.flac
     4:01.46       42620636    ---   --   ---xx   gd1989-04-06d3t05.flac
     5:23.16       57014876    ---   --   ---xx   gd1989-04-06d3t06.flac
   157:56.18     1671609924 B                     (totals for 27 files, 0.5726 overall compression ratio)

Show Checksums
ffp
gd1989-04-06d1t01.flac:87ad14f42511ec9c14c79dbb97afac7c
gd1989-04-06d1t02.flac:b42bff821dc2a80180c01a92921e8517
gd1989-04-06d1t03.flac:5b60c94cfb3f096710a3f537e7298437
gd1989-04-06d1t04.flac:a7f2c5389b7087fd8c3ef984a964b736
gd1989-04-06d1t05.flac:e35d8f3e8a1b8ccab5ac27f739ab9e49
gd1989-04-06d1t06.flac:7eb643e8cebf1f326a6d8e52517c4ee6
gd1989-04-06d1t07.flac:0a2b3552f088f953b494355c128fdd0c
gd1989-04-06d1t08.flac:a098613a2bf6df9414ca9f2f9fd52e11
gd1989-04-06d1t09.flac:aee093a4c7177e979e35a6b076e0c058
gd1989-04-06d1t10.flac:a9f0b30ede71346e61447b77494f1882
gd1989-04-06d1t11.flac:fafb5b786e87ee21bef81bca2befd38a
gd1989-04-06d1t12.flac:088db3695adca220f46b7f731690e773
gd1989-04-06d1t13.flac:90299337405529383ab76749e04f35a8
gd1989-04-06d1t14.flac:904e7ab48407cae695d6a5e097e4dc9e
gd1989-04-06d2t01.flac:a2646737377d3efcfb21701f9bf827f2
gd1989-04-06d2t02.flac:39c1f28000b3f0ef7f5be637b42bf633
gd1989-04-06d2t03.flac:9ec411ba0ca8caadd20dae1d7b50f049
gd1989-04-06d2t04.flac:e0ee68a895eeff4376afadcd8d1a987d
gd1989-04-06d2t05.flac:336c10e1cb255318f55b2b114f72d731
gd1989-04-06d2t06.flac:bc904a3980da719f18582446a2c2b719
gd1989-04-06d2t07.flac:672e09f6fa4aa42effe8ae38f0fb05bc
gd1989-04-06d3t01.flac:5dcf06da52d5b1e18141f20670d05e33
gd1989-04-06d3t02.flac:d86839202e5520b846a02ca97c2d862e
gd1989-04-06d3t03.flac:32e6999a8661db7c21abaa1590aea4ca
gd1989-04-06d3t04.flac:8a4711c484e155d9b4dd08f9695e3e9a
gd1989-04-06d3t05.flac:1c469fac967997a96bff565f20b87048
gd1989-04-06d3t06.flac:e5612dfd04e7cca3495ed476f8a3ba06
flac-md5
fbc2f082049e920319fced81a80aa7e4 *gd1989-04-06d1t01.flac
b454d073d287b763429bf5ea271553c4 *gd1989-04-06d1t02.flac
77348d6c6c9bced1c867dacf96571c34 *gd1989-04-06d1t03.flac
dacbeee954778481efa877acea088c23 *gd1989-04-06d1t04.flac
91d8ae13af7664c1528a7b7cf36742a6 *gd1989-04-06d1t05.flac
bcddd7485c735c1013bd3814fdbfa1ab *gd1989-04-06d1t06.flac
3d5564502aa6a99b5ca1cca79c16298e *gd1989-04-06d1t07.flac
8663100e828846530b66814d90901ae5 *gd1989-04-06d1t08.flac
4745b1eec73f44cfd2bad7eaa8c1b6c2 *gd1989-04-06d1t09.flac
1d57a14e43b2eeded1fe040267e35524 *gd1989-04-06d1t10.flac
8b8e7a4c6af2cd7dde1e339390241e04 *gd1989-04-06d1t11.flac
976623905eb1c19ba90238dc744b733c *gd1989-04-06d1t12.flac
bef49dec3e3bdbe05da1660c305e79dd *gd1989-04-06d1t13.flac
d9e9a12560a9aad1b8edd7af8b0fc5ca *gd1989-04-06d1t14.flac
fb43507180e135f15fa6ec4ceb76113a *gd1989-04-06d2t01.flac
20693b19eac85e1b7a6b3d3bcd6857d7 *gd1989-04-06d2t02.flac
0e4c1243a9b9fb15b17df3b5cf6af33b *gd1989-04-06d2t03.flac
198773cfaad5c7ec9df10f19dc2eb19c *gd1989-04-06d2t04.flac
11be9b14613543d2ac15c8d341fc3a2f *gd1989-04-06d2t05.flac
de98ada37a4d510432633c8a2fe51081 *gd1989-04-06d2t06.flac
cca01e78bc03ad9097b2dd4786600999 *gd1989-04-06d2t07.flac
bff5902ea96c2a7f9be9ce3685b7f38c *gd1989-04-06d3t01.flac
34072a47928f3a416c7f1492db08fbef *gd1989-04-06d3t02.flac
a91712144cd961a2d64315177c2dac72 *gd1989-04-06d3t03.flac
8869a495779971c8e7a6d398b0778d88 *gd1989-04-06d3t04.flac
b4e7e8c654534b84039fe26314e2d25c *gd1989-04-06d3t05.flac
7b399937089fd60d3951091e1655af2b *gd1989-04-06d3t06.flac

Comments
Add Comment
Other Sources (comments)
Healy Ultra Mix - sbd+aud>... (2) complete; Soundboard... (1) flac16; Recording... (0) flac16; matrix... (0) flac16; Taper: Greg... (0) flac16; Recorded &... (0) flac16; (original... (0) flac16; Matrix 2... (0) DTS-Audio-CD 5.1... (0) flac16; Source Info:... (0)
Date User Comment