Browse Collections Artists Sources   Search Dates

Add Show    List Management    Help


Phish 06/09/94
Triad Amphitheater, Salt Lake City, UT
Comments Add Comment    Source Collectors    Add to Collection    Add to Want List    History
Source # 83805 Other Sources
Entered by Ben Mohr
Checksums all_ffp
Disc Counts 1 / 1
Media Size
Date Circulated
Date Added
03/31/2007
04/01/2007
Source Summary Set 2 only; SBD > Cass/x; Dennon DRW-840 > Sony R500 > Audiophile 2496 > Samplitude 5.5 @44.1kHz > FLAC > Wavelab > FLAC16 
Source Information - Download Text | Download Zip
Phish
6/9/94 II
Triad Amphitheater
Salt Lake City, UT

Source: SBD> CassX> (recorded 9/95)
Transfer: Dennon DRW-840> Sony r500> Audiophile 2496> Samplitude 5.5 at 44.1> WAV> FLAC on 6/11/05 by EEE
Remastering: FLAC > Wavelab (pitch correction/EQ/editing) > FLAC16 by Marmar

1.  Split Open and Melt
2.  Glide->
3.  Julius
4.  Halley's Comet->
5.  Scent of a Mule
    Ginseng Sullivan* [not on tape]
6.  Mike's Song\\
7.  \\I am Hydrogen->
8.  Weekapaug Groove
9.  Golgi Apparatus
10. Crowd
Encore:
11. Highway to Hell

*Acoustic and without mics.
Tape flip at the end of Mike's

ORIGINAL SHNTOOL OUTPUT
    length     expanded size   cdr  WAVE problems filename
     9:01.39       95524172    ---   --   -----   ph1994-06-09s2d1t01.wav
     4:10.21       44149436    ---   --   -----   ph1994-06-09s2d1t02.wav
     6:33.45       69431084    ---   --   -----   ph1994-06-09s2d1t03.wav
     4:47.72       50796188    ---   --   -----   ph1994-06-09s2d1t04.wav
     7:30.10       79403564    ---   --   -----   ph1994-06-09s2d1t05.wav
    10:34.44      111941132    ---   --   -----   ph1994-06-09s2d1t06.wav
     0:48.56        8598956    ---   --   -----   ph1994-06-09s2d1t07.wav
     6:39.20       70430684    ---   --   -----   ph1994-06-09s2d1t08.wav
     4:28.28       47341100    ---   --   -----   ph1994-06-09s2d1t09.wav
     1:40.19       17684732    ---   --   -----   ph1994-06-09s2d1t10.wav
     3:48.67       40376828    ---   --   -----   ph1994-06-09s2d1t11.wav
    60:03.46      635677876 B                     (totals for 11 files, 1.0000 o
verall compression ratio)
Show Checksums
all_ffp
ph1994-06-09s2t01.flac:f49335cdefc8c2ff8a84201a92fb63d0
ph1994-06-09s2t02.flac:2308ae4098bb2e3dd039d709d0d18610
ph1994-06-09s2t03.flac:684ee5a3e07550596dedc545857589e6
ph1994-06-09s2t04.flac:ed7f0d5d441cc147b440718314e4d92a
ph1994-06-09s2t05.flac:1d049bc3a02208ccc6a9bf7fed2e79bd
ph1994-06-09s2t06.flac:f7e9d16c7e162edf2e9ad8b0bb2af44a
ph1994-06-09s2t07.flac:c0b8bb58197ab7aa4d649d14f1e6b0c8
ph1994-06-09s2t08.flac:8ebdc11fddd2751c8bc6167ef8517063
ph1994-06-09s2t09.flac:9c15b51e13611376a366dad61bdb9803
ph1994-06-09s2t10.flac:b95831398dfe34e35d25e98f574c8e49
ph1994-06-09s2t11.flac:74891e8d4547f05ddb3616cbd7cf726c

Comments
Add Comment
Other Sources (comments)
B+K 4011 > ? > DA-P1; CDR >... (2) Set 2 only; SBD > cass/4;... (0)
Date User Comment