Browse Collections Artists Sources   Search Dates

Add Show    List Management    Help


Grateful Dead 03/03/81
Cleveland Music Hall, Cleveland, OH
Comments Add Comment    Source Collectors    Add to Collection    Add to Want List    History
Source # 83828 Other Sources
Entered by Matt Vernon
Checksums ffp , flac-md5
Disc Counts 2 / 3
Media Size
Date Circulated
Date Added
04/03/2007
04/04/2007
Source Summary flac16; Recording by Mason Taylor and Mark Radnor: NAK 700 (shotgun capsules) > Nak 550 Cassette Recorder > Maxell Metal Recorded by: Mason Taylor and Mark Radnor (Radish) MAC Transfer: Cassette Master > HHB Porta-a-DAT DAT Transfer: DAT > TASCAM DA-20 (S/PDIF out) -> Apogee Wide Eye S/PDIF interconnect -> LynxTWO-A Audio Reference Interface (S/PDIF in) -> Wavelab 6.0 Editing Info- Wavelab 6.0 using Ozone and L2 for dither 
  Archive
Source Information - Download Text | Download Zip
GRATEFUL DEAD
Cleveland Music Hall
Cleveland, OH
March 3, 1981

Recording Info: NAK 700 (shotgun capsules) > Nak 550 Cassette Recorder > Maxell Metal
Recorded by: Mason Taylor and Mark Radnor (Radish)
MAC Transfer by: Adam Gross - Cassette Master > HHB Porta-a-DAT (transferred 1995)

DAT from the collection of Adam Gross
DAT Transfer by: Todd Evans DAT > TASCAM DA-20 (S/PDIF out) -> Apogee Wide Eye S/PDIF interconnect -> LynxTWO-A Audio Reference Interface (S/PDIF in) -> Wavelab 6.0

Editing Info- All editing and mastering by Jamie Waddell
Wavelab 6.0 using Ozone and L2 for dither

a **GEMS** Production  www.shnflac.net   April 2007

01. tuning
02. Feel Like A Stranger  
03. Peggy-O  
04. Me And My Uncle >
05. Big River  
06. Bird Song
07. Looks Like Rain  
08. Big Railroad Blues  
09. Little Red Rooster >
10. Deal  


01. Crowd/tuning
02. China Cat Sunflower >
03. I Know You Rider >
04. Samson And Delilah  
05. He's Gone >
06. Drums >


01. Lost Sailor >
02. Saint Of Circumstance >
03. Black Peter >
04. Good Lovin'
05. Encore Casey Jones


flac fingerprint file generated by Trader's Little Helper
generated on April 3, 2007, at 11:33 am

gd1981-03-03.GEMS.d1t01.flac:e7058012a6eaa23d07371cbc6260d1ae
gd1981-03-03.GEMS.d1t02.flac:181593953bfcaa83cffb2df18247cf6e
gd1981-03-03.GEMS.d1t03.flac:f9b5d88f36c0086ea8bc1e23a5bef0e5
gd1981-03-03.GEMS.d1t04.flac:dc55cdf5a5e6a38b9e0f81fa83c95160
gd1981-03-03.GEMS.d1t05.flac:9b16f0986f276e8a5f35041121833df5
gd1981-03-03.GEMS.d1t06.flac:1976e7c74267a332f107725cfbba574e
gd1981-03-03.GEMS.d1t07.flac:4f6092c60090f358c3e5b50f418a298c
gd1981-03-03.GEMS.d1t08.flac:713ff80639d38e939e8e522f066b9566
gd1981-03-03.GEMS.d1t09.flac:e27ab9bed93d963d68a7858533b01bde
gd1981-03-03.GEMS.d1t10.flac:ffb9f42976286b60e974cffa605c25fd
gd1981-03-03.GEMS.d2t01.flac:8ba0f45f2cb355f18d7a8d677f00f4d4
gd1981-03-03.GEMS.d2t02.flac:b3fe7e81a2244d65b221250ffbcf5e09
gd1981-03-03.GEMS.d2t03.flac:0fc73e850bcdc50fdbccd4eb08217f21
gd1981-03-03.GEMS.d2t04.flac:9d163ff28eee46fe5d61505c2e202283
gd1981-03-03.GEMS.d2t05.flac:295d29d3e73f86e7e9a5d3b120cc71e1
gd1981-03-03.GEMS.d2t06.flac:68b363df23252e3f22df3e50c001f732
gd1981-03-03.GEMS.d3t01.flac:63b8b683008e1b2512c56d590e78877f
gd1981-03-03.GEMS.d3t02.flac:553003fb0c2260de30dbad2b10565255
gd1981-03-03.GEMS.d3t03.flac:3dc27083d81748b07c214fd8986ae783
gd1981-03-03.GEMS.d3t04.flac:756701fe86f3bc198eca5ffab2a2d8e3
gd1981-03-03.GEMS.d3t05.flac:7a8fd94afdcf5de9d3e84b1f101b8d7a


    length     expanded size   cdr  WAVE problems filename
     2:02.40       21614924    ---   --   ---xx   gd1981-03-03.GEMS.d1t01.flac
     9:36.64      101756972    ---   --   ---xx   gd1981-03-03.GEMS.d1t02.flac
     8:36.33       91100060    ---   --   ---xx   gd1981-03-03.GEMS.d1t03.flac
     3:09.30       33410204    ---   --   ---xx   gd1981-03-03.GEMS.d1t04.flac
     5:49.62       61709468    ---   --   ---xx   gd1981-03-03.GEMS.d1t05.flac
    11:17.07      119439308    ---   --   ---xx   gd1981-03-03.GEMS.d1t06.flac
     8:07.64       86057372    ---   --   ---xx   gd1981-03-03.GEMS.d1t07.flac
     4:39.48       49328540    ---   --   ---xx   gd1981-03-03.GEMS.d1t08.flac
     9:40.57      102446108    ---   --   ---xx   gd1981-03-03.GEMS.d1t09.flac
     7:21.44       77895932    ---   --   ---xx   gd1981-03-03.GEMS.d1t10.flac
     0:11.38        2029820    ---   --   ---xx   gd1981-03-03.GEMS.d2t01.flac
    10:57.40      115988924    ---   --   ---xx   gd1981-03-03.GEMS.d2t02.flac
     5:28.02       57863948    ---   --   ---xx   gd1981-03-03.GEMS.d2t03.flac
     8:03.13       85231820    ---   --   ---xx   gd1981-03-03.GEMS.d2t04.flac
    16:12.66      171616076    ---   --   ---xx   gd1981-03-03.GEMS.d2t05.flac
    12:08.57      128553308    ---   --   ---xx   gd1981-03-03.GEMS.d2t06.flac
     7:01.54       74391452    ---   --   ---xx   gd1981-03-03.GEMS.d3t01.flac
     6:59.25       73970444    ---   --   ---xx   gd1981-03-03.GEMS.d3t02.flac
    10:13.69      108295532    ---   --   ---xx   gd1981-03-03.GEMS.d3t03.flac
     8:26.52       89380748    ---   --   ---xx   gd1981-03-03.GEMS.d3t04.flac
     5:32.05       58576604    ---   --   ---xx   gd1981-03-03.GEMS.d3t05.flac
   161:37.45     1710657564 B                     (totals for 21 files, 0.5585 overall compression ratio)

There were no sector boundary errors.

Show Checksums
ffp
gd1981-03-03.GEMS.d1t01.flac:e7058012a6eaa23d07371cbc6260d1ae
gd1981-03-03.GEMS.d1t02.flac:181593953bfcaa83cffb2df18247cf6e
gd1981-03-03.GEMS.d1t03.flac:f9b5d88f36c0086ea8bc1e23a5bef0e5
gd1981-03-03.GEMS.d1t04.flac:dc55cdf5a5e6a38b9e0f81fa83c95160
gd1981-03-03.GEMS.d1t05.flac:9b16f0986f276e8a5f35041121833df5
gd1981-03-03.GEMS.d1t06.flac:1976e7c74267a332f107725cfbba574e
gd1981-03-03.GEMS.d1t07.flac:4f6092c60090f358c3e5b50f418a298c
gd1981-03-03.GEMS.d1t08.flac:713ff80639d38e939e8e522f066b9566
gd1981-03-03.GEMS.d1t09.flac:e27ab9bed93d963d68a7858533b01bde
gd1981-03-03.GEMS.d1t10.flac:ffb9f42976286b60e974cffa605c25fd
gd1981-03-03.GEMS.d2t01.flac:8ba0f45f2cb355f18d7a8d677f00f4d4
gd1981-03-03.GEMS.d2t02.flac:b3fe7e81a2244d65b221250ffbcf5e09
gd1981-03-03.GEMS.d2t03.flac:0fc73e850bcdc50fdbccd4eb08217f21
gd1981-03-03.GEMS.d2t04.flac:9d163ff28eee46fe5d61505c2e202283
gd1981-03-03.GEMS.d2t05.flac:295d29d3e73f86e7e9a5d3b120cc71e1
gd1981-03-03.GEMS.d2t06.flac:68b363df23252e3f22df3e50c001f732
gd1981-03-03.GEMS.d3t01.flac:63b8b683008e1b2512c56d590e78877f
gd1981-03-03.GEMS.d3t02.flac:553003fb0c2260de30dbad2b10565255
gd1981-03-03.GEMS.d3t03.flac:3dc27083d81748b07c214fd8986ae783
gd1981-03-03.GEMS.d3t04.flac:756701fe86f3bc198eca5ffab2a2d8e3
gd1981-03-03.GEMS.d3t05.flac:7a8fd94afdcf5de9d3e84b1f101b8d7a
flac-md5
8bae10036bf03c3f128d009274e446ea *gd1981-03-03.GEMS.d1t01.flac
c9ab7284ffff5f5cc0db32cd6ced9b1b *gd1981-03-03.GEMS.d1t02.flac
e2b66288dd4a818dc1e65bab7c5dceda *gd1981-03-03.GEMS.d1t03.flac
83641df0b731f532c402c6278e400d58 *gd1981-03-03.GEMS.d1t04.flac
12b8cd46d9ec40a9009b3dc22dbd0cd3 *gd1981-03-03.GEMS.d1t05.flac
3636d6fd1ec6c6ca3279375e3f792883 *gd1981-03-03.GEMS.d1t06.flac
3e02674ce07f5b78475ca634e4bbfb3a *gd1981-03-03.GEMS.d1t07.flac
f65124cb1802e3a88f993934369c5bb3 *gd1981-03-03.GEMS.d1t08.flac
4f8d6c03996852625faf7a975a1f33f6 *gd1981-03-03.GEMS.d1t09.flac
85ce0421be115737beec7e08150785a0 *gd1981-03-03.GEMS.d1t10.flac
102879e814e8ec05de0d873eb1d0f5a3 *gd1981-03-03.GEMS.d2t01.flac
b5c614cdd752b76a57111e9b8cfe5bf8 *gd1981-03-03.GEMS.d2t02.flac
15827e9d2ad20654e09926e33511fb07 *gd1981-03-03.GEMS.d2t03.flac
a2a5632e27fc6d6e023d6f2b95d31901 *gd1981-03-03.GEMS.d2t04.flac
557bce7c7a8b0317d0c003d7b81bee34 *gd1981-03-03.GEMS.d2t05.flac
92a821ec46722495d6d4526bd4602542 *gd1981-03-03.GEMS.d2t06.flac
edffe95cd2cd67298da22d6ff66ba898 *gd1981-03-03.GEMS.d3t01.flac
0295f489442b8e600b775c32c6d6bbcb *gd1981-03-03.GEMS.d3t02.flac
45a3028af27d4e69b01d855ebb5b3785 *gd1981-03-03.GEMS.d3t03.flac
72ac18bfd9b75ddcb84628c7f9fd6c53 *gd1981-03-03.GEMS.d3t04.flac
8802018576d39d5ee092863d83d758c6 *gd1981-03-03.GEMS.d3t05.flac

Comments
Add Comment
Other Sources (comments)
aud> mics?> cassette... (0) Recording by Mark Horvath:... (1) Recording by Bob Wagner;... (2) flac16; Recording... (0) flac16; Recording... (2) flac16; Recording... (0) flac16; Source Info:... (1) flac24; Source Info:... (1)
Date User Comment