Browse Collections Artists Sources   Search Dates

Add Show    List Management    Help


Zero 03/18/87
The Fillmore, San Francisco, CA
Comments Add Comment    Source Collectors    Add to Collection    Add to Want List    History
Source # 83903 Other Sources
Entered by skbnut
Checksums zero1987-03-18.ffp , zero1987-03-18.md5
Disc Counts 1 / 1
Media Size
Date Circulated
Date Added
04/02/1987
04/06/2007
Source Summary SBD -> ? -> CD -> Samplitude Professional v9.02 -> FLAC  
Source Information - Download Text | Download Zip
Zero - March 18, 1987
Fillmore Auditorium - San Francisco, CA

Recording Info:
SBD -> ? -> CD

Transfer Info:
CD -> Samplitude Professional v9.02 -> FLAC
(1 Disc Audio / 1 Disc FLAC)

All Transfers and Mastering By Charlie Miller
[email protected]
April 2, 2007

Notes:
-- Thanks to Rich Miller for the CD
-- Last 3 songs With Merl Saunders

Setlist:
d1t01 - Try A Little Tenderness
d1t02 - The Core
d1t03 - Tangled Hangers
d1t04 - Tear Tags Off Mattresses
d1t05 - Built For Comfort
d1t06 - Do I Move You
d1t07 - After Midnight


SHNTOOL OUTPUT:
    length     expanded size   cdr  WAVE problems filename
     5:51.49       62031692    ---   --   -----   zero1987-03-18d1t01.wav
     9:22.42       99235628    ---   --   -----   zero1987-03-18d1t02.wav
     7:03.43       74718380    ---   --   -----   zero1987-03-18d1t03.wav
    12:10.07      128788508    ---   --   -----   zero1987-03-18d1t04.wav
     5:32.38       58654220    ---   --   -----   zero1987-03-18d1t05.wav
     7:40.27       81207548    ---   --   -----   zero1987-03-18d1t06.wav
     9:44.54      103144652    ---   --   -----   zero1987-03-18d1t07.wav
    57:25.35      607780628 B                     (totals for 7 files)
Show Checksums
zero1987-03-18.ffp
zero1987-03-18d1t01.flac:cfca483bc8644872aeed5f00f5225e61
zero1987-03-18d1t02.flac:a0536c4a133a8543f550035172d8e246
zero1987-03-18d1t03.flac:8a464665b82cdb16aafd1d5df6ee0ff8
zero1987-03-18d1t04.flac:9847c0df2216b5cfcff4fbce0fe00786
zero1987-03-18d1t05.flac:76226ac957c2033bc28245181d204158
zero1987-03-18d1t06.flac:233449c62fe02e5fbe41a7532cb1b9db
zero1987-03-18d1t07.flac:c99ee2471bece57a83cafd649b2c2654
zero1987-03-18.md5
a003d674c255242689e63c942bc5c0ae *zero1987-03-18d1t01.flac
02d58cbe053fabd4c645d3912bfc4d5b *zero1987-03-18d1t02.flac
b6efa045c549766afeb3ae52c5afba8e *zero1987-03-18d1t03.flac
918b6f052aab330df80ce0fffd998e04 *zero1987-03-18d1t04.flac
f9a31319c57bbf163a002be36b82145a *zero1987-03-18d1t05.flac
c03bc60798637ce06ee9abc2e535584f *zero1987-03-18d1t06.flac
ae0422aeb4996fe4b14ff0ced44f9add *zero1987-03-18d1t07.flac

Comments
Add Comment
Date User Comment