Browse Collections Artists Sources   Search Dates

Add Show    List Management    Help


Grateful Dead 11/06/87
Henry J Kaiser Convention Center, Oakland, CA
Comments Add Comment    Source Collectors    Add to Collection    Add to Want List    History
Source # 83941 Other Sources
Entered by Gary Field
Checksums ffp , flac-md5
Disc Counts 2 / 2
Media Size
Date Circulated
Date Added
04/06/2007
04/07/2007
Source Summary flac16; Recording Info: SBD -> Cassette Master (TDK MA-XG90) Transfer Info: Cassette Master (Tascam 122mkII) -> Apogee MiniMe (24bit/48k) -> Samplitude Professional v9.02 -> FLAC/16 All Transfers and Mastering By Charlie Miller; Upgrade in circulation 
  Archive
Source Information - Download Text | Download Zip
Grateful Dead - November 6, 1987
Henry J. Kaiser Convention Center - Oakland, CA

Recording Info:
SBD -> Cassette Master (TDK MA-XG90)

Transfer Info:
Cassette Master (Tascam 122mkII) -> Apogee MiniMe (24bit/48k) ->
Samplitude Professional v9.02 -> FLAC/16
(2 Discs Audio / 2 Discs FLAC)

All Transfers and Mastering By Charlie Miller
[email protected]
March 27, 2007

Notes:
-- Disc change is seamless
-- Two SBD Cassette Masters were used to make this show complete
-- Thanks to Paul Scotton and Joani Walker for the tapes

Set 1:
d1t01 - Tuning
d1t02 - Big Boss Man
d1t03 - Feel Like A Stranger
d1t04 - It Must Have Been The Roses
d1t05 - New Minglewood Blues
d1t06 - When Push Comes To Shove
d1t07 - Me And My Uncle ->
d1t08 - Cumberland Blues
d1t09 - Let It Grow

Set 2:
d1t10 - Tuning
d1t11 - Scarlet Begonias ->
d1t12 - Hell In A Bucket
d2t01 - He's Gone ->
d2t02 - Drums ->
d2t03 - Space ->
d2t04 - The Wheel ->
d2t05 - Gimme Some Lovin' ->
d2t06 - Morning Dew ->
d2t07 - All Along The Watchtower

Encore:
d2t08 - Black Muddy River


SHNTOOL OUTPUT:
    length     expanded size   cdr  WAVE problems filename
     1:17.12       13611068    ---   --   -----   gd87-11-06d1t01.wav
     7:11.61       76171916    ---   --   -----   gd87-11-06d1t02.wav
    10:49.37      114570668    ---   --   -----   gd87-11-06d1t03.wav
     6:34.07       69518108    ---   --   -----   gd87-11-06d1t04.wav
     8:09.42       86358428    ---   --   -----   gd87-11-06d1t05.wav
     6:19.37       66942668    ---   --   -----   gd87-11-06d1t06.wav
     3:10.00       33516044    ---   --   -----   gd87-11-06d1t07.wav
     5:36.73       59442140    ---   --   -----   gd87-11-06d1t08.wav
    12:33.09      132850412    ---   --   -----   gd87-11-06d1t09.wav
     0:50.06        8834156    ---   --   -----   gd87-11-06d1t10.wav
     9:19.44       98711132    ---   --   -----   gd87-11-06d1t11.wav
     6:09.74       65265692    ---   --   -----   gd87-11-06d1t12.wav
    11:40.29      123548252    ---   --   -----   gd87-11-06d2t01.wav
    12:45.69      135108332    ---   --   -----   gd87-11-06d2t02.wav
     7:57.33       84220460    ---   --   -----   gd87-11-06d2t03.wav
     4:51.39       51424172    ---   --   -----   gd87-11-06d2t04.wav
     5:19.40       56365724    ---   --   -----   gd87-11-06d2t05.wav
    11:20.67      120109628    ---   --   -----   gd87-11-06d2t06.wav
     6:52.06       72690956    ---   --   -----   gd87-11-06d2t07.wav
     6:53.40       72947324    ---   --   -----   gd87-11-06d2t08.wav
   145:42.50     1542207280 B                     (totals for 20 files)

Show Checksums
ffp
gd87-11-06d1t01.flac:95c666c91c41de45863c3b8d81f1bf03
gd87-11-06d1t02.flac:816a0473564133a21529119a1d2552db
gd87-11-06d1t03.flac:d22845770726d4d95b84419a49386927
gd87-11-06d1t04.flac:b9b8e22f9200686c0729fee9838e89d7
gd87-11-06d1t05.flac:5b680d5040d8eda3bacc03b73eea4cea
gd87-11-06d1t06.flac:2138b586a2d7a805793156fa1c2b1f0d
gd87-11-06d1t07.flac:36e287007889f33a4bdc25170ade0621
gd87-11-06d1t08.flac:72bb7aab8bfcb34b72b1dd90b7f048a7
gd87-11-06d1t09.flac:a290157275482b9651cce4ff9eb99481
gd87-11-06d1t10.flac:7926a19bc8eebe87ac0e961bc9ac7d0d
gd87-11-06d1t11.flac:ea8e8ec2d1190cec0b1acc04a43fecfe
gd87-11-06d1t12.flac:01a5ee6a48124d694a1b24c644523089
gd87-11-06d2t01.flac:a2123f7327ab52d2348041f8f6d93896
gd87-11-06d2t02.flac:97e29b2bd04effe8038c5afd8bd6d1c8
gd87-11-06d2t03.flac:c4c62048109f9ae6dc0d6de631cb91c2
gd87-11-06d2t04.flac:3ec38d428112f2ec94e8d97c7d960b53
gd87-11-06d2t05.flac:621e22f10357f03c998222750720b307
gd87-11-06d2t06.flac:e904a80e5ec57b6284988a81263a0efc
gd87-11-06d2t07.flac:0edefd7c9108a852bc0a8a25094b76f5
gd87-11-06d2t08.flac:67380c93b593c4bb34ae6bfd4fd01645
flac-md5
a3b981eb5133e7ad6fad970c94b9affc *gd87-11-06d1t01.flac
e019318939016bbdfdd135d102281cf7 *gd87-11-06d1t02.flac
6304d0913e6f69b34731ea56c4a88623 *gd87-11-06d1t03.flac
97537f491bc5417d90a26a25f11c2390 *gd87-11-06d1t04.flac
7a14e550e3052493e555dd21f371eae4 *gd87-11-06d1t05.flac
4010378f9ec7ae861d65ae9e3a168681 *gd87-11-06d1t06.flac
ad187eb1c7e2894d4896050659a99e2e *gd87-11-06d1t07.flac
de7986cdfcd9c0bdb36f2a21b7d9614b *gd87-11-06d1t08.flac
631a3bae530773e47c1e82729c673fe5 *gd87-11-06d1t09.flac
47122c9c29d88c345d44a06eb32379d2 *gd87-11-06d1t10.flac
edf5e63b1b9714d2237b02cf6cdab48b *gd87-11-06d1t11.flac
c52535bb10a8dfb20946469f435e9c8d *gd87-11-06d1t12.flac
de0501a74db708a72024e932969e55b5 *gd87-11-06d2t01.flac
1cee07be1b4bd36c6855d7296ec1b1e4 *gd87-11-06d2t02.flac
444a659ddacedb7e7fcff832e5cd9b0b *gd87-11-06d2t03.flac
31cd29ba0f05904084311451a6c29530 *gd87-11-06d2t04.flac
11f1b4f135c7542bfec019587b5acfd2 *gd87-11-06d2t05.flac
f9637eadb284b5475be20c88faf9382b *gd87-11-06d2t06.flac
62d6797f907bba700f7b945198fd6ee5 *gd87-11-06d2t07.flac
105adc329109878ed97f1a9c922cca2c *gd87-11-06d2t08.flac

Comments
Add Comment
Other Sources (comments)
SBD>Cm>Dat>Samplitude>Cool... (0) flac24; First... (0) flac16; First... (0) flac16; Recording... (3)
Date User Comment