Browse Collections Artists Sources   Search Dates

Add Show    List Management    Help


Garcia 07/07/79
Keystone Palo Alto, Palo Alto, CA
Comments Add Comment    Source Collectors    Add to Collection    Add to Want List    History
Source # 83953 Other Sources
Entered by
Checksums ffp
Disc Counts 1 / 1
Media Size
Date Circulated
Date Added
04/07/2007
04/07/2007
Source Summary Reconstruction, set I: matrix of MSC source (shnid 83723) and Eldon Porray MAC source (shnid 10142), via sirmick. 
Source Information - Download Text | Download Zip
Reconstruction
Keystone
Palo Alto, CA
07/07/1979

Set 1 matrix

Sources:

Soundboard Cassette Master > DAT
Transfer: Panasonic SV-3700 > M-Audio Audiophile 2496 to Wavelab 5.0
mastering with iZotope Ozone 3 > CDWAV1.9 > FLAC (level 8).
Transferred, Remastered and Seeded by Green Mountain Bros. March 2007

MAC > D > CD > EAC > SHN
Taped by Eldon Porray (patched out of Bob Menke's deck), Nakamichi CM-700 mics > Sony
TC-D5 > Maxell XL-II cassette master > Nakamichi CR-3A playback (no Dolby) > Lucid
AD9624 24-bit A/D converter @ 44.1 kHz > Sony R500 (master DAT) > Sony CDR-W33 (master CD) > EAC > tracking (CD Wave) > .shn (mkwACT).
A > D and D > CD transfers by Ryan Shriver, WAV > SHN by Joe Jupille.  Proper sector
boundaries verified using shntool.



01   crowd/tuning
02   Tellin' My Friends About You
03   That's What Love Will Make You Do
04   Do I Move You?
05   Another Star (Instrumental)
06   Strugglin' Man
07   Don't It Make It Better

Jerry Garcia - guitar
John Kahn - bass
Merl Saunders - keyboards
Ed Neumeister - trombone
Ron Stallings - tenor sax
Gaylord Birch - drums


edited and mastered
SIRMick
April 2007


shntool output:

    length     expanded size   cdr  WAVE problems filename
     1:19.59       14074412    ---   --   ---xx   recon1979-07-07d1t01.flac
     5:28.27       57922748    ---   --   ---xx   recon1979-07-07d1t02.flac
    11:12.55      118670204    ---   --   ---xx   recon1979-07-07d1t03.flac
    13:10.38      139445420    ---   --   ---xx   recon1979-07-07d1t04.flac
    14:21.62      152026268    ---   --   ---xx   recon1979-07-07d1t05.flac
     7:03.08       74636060    ---   --   ---xx   recon1979-07-07d1t06.flac
     7:28.27       79090748    ---   --   ---xx   recon1979-07-07d1t07.flac
    60:04.51      635865860 B                     (totals for 7 files, 0.6418 overall compression ratio)


flac fingerprints:

recon1979-07-07d1t01.flac:a807648e9eb540692880eb012b111411
recon1979-07-07d1t02.flac:cd9feedaa7391841abb8d7182abf86bd
recon1979-07-07d1t03.flac:8c9105a92d029c9b287ca63a7beb1dbc
recon1979-07-07d1t04.flac:82a713bc7b30e0d52516808a45b949b8
recon1979-07-07d1t05.flac:ef15e0296c840e6102a6e811d0318bbb
recon1979-07-07d1t06.flac:889b7a6f47eec5fd3523d9737930c95b
recon1979-07-07d1t07.flac:1b42fb87b7642a420ebab83ecad5b733


Show Checksums
ffp
recon1979-07-07d1t01.flac:a807648e9eb540692880eb012b111411
recon1979-07-07d1t02.flac:cd9feedaa7391841abb8d7182abf86bd
recon1979-07-07d1t03.flac:8c9105a92d029c9b287ca63a7beb1dbc
recon1979-07-07d1t04.flac:82a713bc7b30e0d52516808a45b949b8
recon1979-07-07d1t05.flac:ef15e0296c840e6102a6e811d0318bbb
recon1979-07-07d1t06.flac:889b7a6f47eec5fd3523d9737930c95b
recon1979-07-07d1t07.flac:1b42fb87b7642a420ebab83ecad5b733

Comments
Add Comment
Other Sources (comments)
Reconstruction: MAC > D >... (0) Reconstruction, set I: MSC... (0) Reconstruction:Recor... (0)
Date User Comment