Browse Collections Artists Sources   Search Dates

Add Show    List Management    Help


Grateful Dead 06/14/87
Ventura County Fairgrounds, Ventura, CA
Comments Add Comment    Source Collectors    Add to Collection    Add to Want List    History
Source # 83990 Other Sources
Entered by Matt Vernon
Checksums ffp , flac-md5
Disc Counts 2 / 3
Media Size
Date Circulated
Date Added
04/08/2007
04/08/2007
Source Summary flac16; Source: Audience FOB Recording, DFC Media: TDK SA-X Lineage: AKG C460b pre's with Ck61uls capsules > Uher CR240 > MAC Transfer: MAC > Nakamichi DR-1 > Grace Design Lunatec V3 > AES > Sound Devices 722 > WAV Mastering: WaveLab 5.0 iZotope Ozone 3 > CDWAV1.9 > FLAC (level 8) Taped by: D. Thompson Transfer by: A. Egert Mastering by: B. Koucky 
  Archive
Source Information - Download Text | Download Zip
MOTB Release: 0017/16bit
Release Date: April 8, 2007

Band: Grateful Dead
Date: 06/14/1987 - Sunday
Venue: Ventura County Fairgrounds
Location: Ventura, CA

Source: Audience FOB Recording, DFC
Media: TDK SA-X
Lineage: AKG C460b pre's with Ck61uls capsules > Uher CR240 > MAC
Transfer: MAC > Nakamichi DR-1 > Grace Design Lunatec V3 > AES > Sound Devices 722 > WAV
Mastering: WaveLab 5.0 iZotope Ozone 3 > CDWAV1.9 > FLAC (level 8)

Taped by: D. Thompson
Transfer by: A. Egert
Mastering by: B. Koucky

Disc 1 59:23
Set I
01. Tuning
02. Hell In A Bucket >
03. Sugaree
04. Tons Of Steel
05. Ramble On Rose
06. Me And My Uncle >
07. Mexicali Blues
08. Althea
09. Feel Like A Stranger
10. Might As Well

Disc 2 47:11
Set II
01. Scarlet Begonias >
02. Fire On The Mountain
03. Playing In The Band >
04. Terrapin Station >
05. Drums >

Disc 3 51:45
Set II cont
01. Space >
02. Truckin' >
03. Wharf Rat >
04. Throwing Stones >
05. Not Fade Away
06. NFA chant
Encore:
07. The Mighty Quinn (Quinn the Eskimo)

Patch Info:
- Patches used for tuning before Hell In A Bucket, and the Throwing Stones > NFA tape flip.
- Patch Source supplied by Dave Minches [FOB AUD Unknown taper/mics > PCM > DAT > FLAC]

Notes:
- Crossfades were applied between some first set tunes and tape flips.
- Discs 2 and 3 are seamless.


FLAC FINGERPRINTS:
gd1987-06-14.motb.0017.d1t01.flac:c59d8a37e9aebe9b89485e0afcd841af
gd1987-06-14.motb.0017.d1t02.flac:64b0261eb0e6236c734bd28e4ae92b5a
gd1987-06-14.motb.0017.d1t03.flac:91882bc06678c8b64eb3d9ac91412d7b
gd1987-06-14.motb.0017.d1t04.flac:0da7f5fb86eb93af713df67f28798f72
gd1987-06-14.motb.0017.d1t05.flac:d81c8ea6c5defa4da1507a9961836a62
gd1987-06-14.motb.0017.d1t06.flac:acb1acb2d7a093d770e3b5a25a1066be
gd1987-06-14.motb.0017.d1t07.flac:d7e7a4fdcef4dbefeb510523b64b82b0
gd1987-06-14.motb.0017.d1t08.flac:834f430ec7a9d7de026f839d624eebf1
gd1987-06-14.motb.0017.d1t09.flac:950fada46afe6d0894d5b162804746b6
gd1987-06-14.motb.0017.d1t10.flac:4998e3ed7be3df0f4c2b3775f6f9dd16
gd1987-06-14.motb.0017.d2t01.flac:309ee3553ce99f4d0982d0c2f5d6a433
gd1987-06-14.motb.0017.d2t02.flac:8afc1e5e293322c3a934f6e21efba4e5
gd1987-06-14.motb.0017.d2t03.flac:340c4e2657185b36f475609b18ea9694
gd1987-06-14.motb.0017.d2t04.flac:08994e41f49957fac3c8c797c89c8973
gd1987-06-14.motb.0017.d2t05.flac:e07996b7ebb03e9aba91206dcaa501d1
gd1987-06-14.motb.0017.d3t01.flac:0af320539a7b37c0b1a1a3180702de6a
gd1987-06-14.motb.0017.d3t02.flac:74957467e858aeb6a5e692f33db8db37
gd1987-06-14.motb.0017.d3t03.flac:6fad740aefb8b3159e5d55dd0815ed9a
gd1987-06-14.motb.0017.d3t04.flac:83283a5cf2a8114b9944517069ae94af
gd1987-06-14.motb.0017.d3t05.flac:1d8e437dabdc42c57f20e3eda42ed071
gd1987-06-14.motb.0017.d3t06.flac:58948830dd9f2b0998e83528c6713c9e
gd1987-06-14.motb.0017.d3t07.flac:3530e33a1270cf61b8be37e1a56a9fe7

MD5 CHECKSUMS:
223bb84bded598e4f44b63e029312372 *gd1987-06-14.motb.0017.d1t01.flac
e88d554dd6c089c4988c54e4d03f651e *gd1987-06-14.motb.0017.d1t02.flac
669c349eb160e6ebee53dde9e198b3a2 *gd1987-06-14.motb.0017.d1t03.flac
5cea9057ab1bd7c6167b03f79b422c5a *gd1987-06-14.motb.0017.d1t04.flac
3d39e04d59bd821b6646743f2d6707f2 *gd1987-06-14.motb.0017.d1t05.flac
e59cedbbdb6c60507f1c8439941c4ea0 *gd1987-06-14.motb.0017.d1t06.flac
06e75f9cf3ad8efd45bd83bc631ab700 *gd1987-06-14.motb.0017.d1t07.flac
e044979cec7109f1fa3d0425d51a9cf8 *gd1987-06-14.motb.0017.d1t08.flac
34d4ff5ec1efe90993ce045b55d84f2c *gd1987-06-14.motb.0017.d1t09.flac
d3e2e02aa50cd4919592d49c3782f34a *gd1987-06-14.motb.0017.d1t10.flac
58f1b6ff678bc344da66d3f3d13f8de7 *gd1987-06-14.motb.0017.d2t01.flac
7ac1418028668190c651a598e235f9c0 *gd1987-06-14.motb.0017.d2t02.flac
9651cc9c7e8f380d57815741a323eb5f *gd1987-06-14.motb.0017.d2t03.flac
76a81bba9c5b3e05048cf3b8d34a4e1b *gd1987-06-14.motb.0017.d2t04.flac
08050643f606f6891e264857d2b02d95 *gd1987-06-14.motb.0017.d2t05.flac
0726e82effd3952818863e7a444c1bcd *gd1987-06-14.motb.0017.d3t01.flac
82ee339d1ea6a33b6413df1d362d60e0 *gd1987-06-14.motb.0017.d3t02.flac
ff6c1890475bfb2f4b139a3840d686f5 *gd1987-06-14.motb.0017.d3t03.flac
4db52437f35661c3b8c232bedf3c192d *gd1987-06-14.motb.0017.d3t04.flac
ffd00fe83bff88dcb755b527f56d88fa *gd1987-06-14.motb.0017.d3t05.flac
702cb60edd2150500b332633eb8bb271 *gd1987-06-14.motb.0017.d3t06.flac
472b554bf5b321432bd9e5a1e9a3bfb9 *gd1987-06-14.motb.0017.d3t07.flac

SHNTOOL OUTPUT:
    length     expanded size   cdr  WAVE problems filename
     2:01.64       21494972    ---   --   ---xx   gd1987-06-14.motb.0017.d1t01.flac
     5:45.29       60926252    ---   --   ---xx   gd1987-06-14.motb.0017.d1t02.flac
    11:20.61      120095516    ---   --   ---xx   gd1987-06-14.motb.0017.d1t03.flac
     5:31.46       58496636    ---   --   ---xx   gd1987-06-14.motb.0017.d1t04.flac
     6:41.40       70830524    ---   --   ---xx   gd1987-06-14.motb.0017.d1t05.flac
     3:12.02       33873548    ---   --   ---xx   gd1987-06-14.motb.0017.d1t06.flac
     5:04.21       53675036    ---   --   ---xx   gd1987-06-14.motb.0017.d1t07.flac
     7:12.25       76263644    ---   --   ---xx   gd1987-06-14.motb.0017.d1t08.flac
     8:04.33       85455260    ---   --   ---xx   gd1987-06-14.motb.0017.d1t09.flac
     4:28.59       47414012    ---   --   ---xx   gd1987-06-14.motb.0017.d1t10.flac
     7:59.56       84627356    ---   --   ---xx   gd1987-06-14.motb.0017.d2t01.flac
     9:57.03      105317900    ---   --   ---xx   gd1987-06-14.motb.0017.d2t02.flac
     9:40.37      102399068    ---   --   ---xx   gd1987-06-14.motb.0017.d2t03.flac
    10:52.69      115175132    ---   --   ---xx   gd1987-06-14.motb.0017.d2t04.flac
     8:41.38       91993820    ---   --   ---xx   gd1987-06-14.motb.0017.d2t05.flac
    12:37.03      133541900    ---   --   ---xx   gd1987-06-14.motb.0017.d3t01.flac
     7:59.43       84596780    ---   --   ---xx   gd1987-06-14.motb.0017.d3t02.flac
     8:21.57       88510508    ---   --   ---xx   gd1987-06-14.motb.0017.d3t03.flac
     8:43.07       92273708    ---   --   ---xx   gd1987-06-14.motb.0017.d3t04.flac
     7:51.27       83147948    ---   --   ---xx   gd1987-06-14.motb.0017.d3t05.flac
     1:53.22       19984988    ---   --   ---xx   gd1987-06-14.motb.0017.d3t06.flac
     4:19.41       45784076    ---   --   ---xx   gd1987-06-14.motb.0017.d3t07.flac
   158:20.33     1675878584 B                     (totals for 22 files, 0.5958 overall compression ratio)

Show Checksums
ffp
gd1987-06-14.motb.0017.d1t01.flac:c59d8a37e9aebe9b89485e0afcd841af
gd1987-06-14.motb.0017.d1t02.flac:64b0261eb0e6236c734bd28e4ae92b5a
gd1987-06-14.motb.0017.d1t03.flac:91882bc06678c8b64eb3d9ac91412d7b
gd1987-06-14.motb.0017.d1t04.flac:0da7f5fb86eb93af713df67f28798f72
gd1987-06-14.motb.0017.d1t05.flac:d81c8ea6c5defa4da1507a9961836a62
gd1987-06-14.motb.0017.d1t06.flac:acb1acb2d7a093d770e3b5a25a1066be
gd1987-06-14.motb.0017.d1t07.flac:d7e7a4fdcef4dbefeb510523b64b82b0
gd1987-06-14.motb.0017.d1t08.flac:834f430ec7a9d7de026f839d624eebf1
gd1987-06-14.motb.0017.d1t09.flac:950fada46afe6d0894d5b162804746b6
gd1987-06-14.motb.0017.d1t10.flac:4998e3ed7be3df0f4c2b3775f6f9dd16
gd1987-06-14.motb.0017.d2t01.flac:309ee3553ce99f4d0982d0c2f5d6a433
gd1987-06-14.motb.0017.d2t02.flac:8afc1e5e293322c3a934f6e21efba4e5
gd1987-06-14.motb.0017.d2t03.flac:340c4e2657185b36f475609b18ea9694
gd1987-06-14.motb.0017.d2t04.flac:08994e41f49957fac3c8c797c89c8973
gd1987-06-14.motb.0017.d2t05.flac:e07996b7ebb03e9aba91206dcaa501d1
gd1987-06-14.motb.0017.d3t01.flac:0af320539a7b37c0b1a1a3180702de6a
gd1987-06-14.motb.0017.d3t02.flac:74957467e858aeb6a5e692f33db8db37
gd1987-06-14.motb.0017.d3t03.flac:6fad740aefb8b3159e5d55dd0815ed9a
gd1987-06-14.motb.0017.d3t04.flac:83283a5cf2a8114b9944517069ae94af
gd1987-06-14.motb.0017.d3t05.flac:1d8e437dabdc42c57f20e3eda42ed071
gd1987-06-14.motb.0017.d3t06.flac:58948830dd9f2b0998e83528c6713c9e
gd1987-06-14.motb.0017.d3t07.flac:3530e33a1270cf61b8be37e1a56a9fe7
flac-md5
223bb84bded598e4f44b63e029312372 *gd1987-06-14.motb.0017.d1t01.flac
e88d554dd6c089c4988c54e4d03f651e *gd1987-06-14.motb.0017.d1t02.flac
669c349eb160e6ebee53dde9e198b3a2 *gd1987-06-14.motb.0017.d1t03.flac
5cea9057ab1bd7c6167b03f79b422c5a *gd1987-06-14.motb.0017.d1t04.flac
3d39e04d59bd821b6646743f2d6707f2 *gd1987-06-14.motb.0017.d1t05.flac
e59cedbbdb6c60507f1c8439941c4ea0 *gd1987-06-14.motb.0017.d1t06.flac
06e75f9cf3ad8efd45bd83bc631ab700 *gd1987-06-14.motb.0017.d1t07.flac
e044979cec7109f1fa3d0425d51a9cf8 *gd1987-06-14.motb.0017.d1t08.flac
34d4ff5ec1efe90993ce045b55d84f2c *gd1987-06-14.motb.0017.d1t09.flac
d3e2e02aa50cd4919592d49c3782f34a *gd1987-06-14.motb.0017.d1t10.flac
58f1b6ff678bc344da66d3f3d13f8de7 *gd1987-06-14.motb.0017.d2t01.flac
7ac1418028668190c651a598e235f9c0 *gd1987-06-14.motb.0017.d2t02.flac
9651cc9c7e8f380d57815741a323eb5f *gd1987-06-14.motb.0017.d2t03.flac
76a81bba9c5b3e05048cf3b8d34a4e1b *gd1987-06-14.motb.0017.d2t04.flac
08050643f606f6891e264857d2b02d95 *gd1987-06-14.motb.0017.d2t05.flac
0726e82effd3952818863e7a444c1bcd *gd1987-06-14.motb.0017.d3t01.flac
82ee339d1ea6a33b6413df1d362d60e0 *gd1987-06-14.motb.0017.d3t02.flac
ff6c1890475bfb2f4b139a3840d686f5 *gd1987-06-14.motb.0017.d3t03.flac
4db52437f35661c3b8c232bedf3c192d *gd1987-06-14.motb.0017.d3t04.flac
ffd00fe83bff88dcb755b527f56d88fa *gd1987-06-14.motb.0017.d3t05.flac
702cb60edd2150500b332633eb8bb271 *gd1987-06-14.motb.0017.d3t06.flac
472b554bf5b321432bd9e5a1e9a3bfb9 *gd1987-06-14.motb.0017.d3t07.flac

Comments
Add Comment
Other Sources (comments)
Master Soundboard Cassette... (0) Matrix SBD>CASS>DAT>CD; via... (1) flac16; Seamless fix... (1) flac16; SRC: MAC (2... (0) flac24; SRC: MAC (2... (0) flac16; Recording... (0) flac24; Source:... (0) flac24;... (0)
Date User Comment