Browse Collections Artists Sources   Search Dates

Add Show    List Management    Help


Grateful Dead 11/07/87
Henry J Kaiser Convention Center, Oakland, CA
Comments Add Comment    Source Collectors    Add to Collection    Add to Want List    History
Source # 83998 Other Sources
Entered by Gary Field
Checksums ffp , flac-md5
Disc Counts 2 / 2
Media Size
Date Circulated
Date Added
04/08/2007
04/09/2007
Source Summary flac16; Recording Info: SBD -> Cassette Master (TDK MA-XG90) Transfer Info: Cassette Master (Tascam 122mkII) -> Apogee MiniMe (24bit/48k) -> Samplitude Professional v9.02 -> FLAC/16 All Transfers and Mastering By Charlie Miller; Upgrade in circulation 
  Archive
Source Information - Download Text | Download Zip
Grateful Dead - November 7, 1987
Henry J. Kaiser Convention Center - Oakland, CA

Recording Info:
SBD -> Cassette Master (TDK MA-XG90)

Transfer Info:
Cassette Master (Tascam 122mkII) -> Apogee MiniMe (24bit/48k) ->
Samplitude Professional v9.02 -> FLAC/16
(2 Discs Audio / 2 Discs FLAC)

All Transfers and Mastering By Charlie Miller
[email protected]
April 7, 2007

Patch Info:
SBD -> PCM -> Sound Forge -> CD (shnid=9242) supplies:
Space (0:01 - 0:24)

Notes:
-- Encore on end of 1st Set to fit show on 2 discs
-- Encore can be re-joined with 2nd Set seamlessly
-- Sound improves during Hey Pocky Way
-- Thanks to Paul Scotton and Joani Walker for the tapes

Set 1:
d1t01 - Hey Pocky Way
d1t02 - Jack Straw
d1t03 - Row Jimmy
d1t04 - When I Paint My Masterpiece
d1t05 - Dupree's Diamond Blues
d1t06 - Box Of Rain
d1t07 - Cassidy ->
d1t08 - Might As Well

Set 2:
d2t01 - Uncle John's Band ->
d2t02 - Playing In The Band ->
d2t03 - Terrapin Station ->
d2t04 - Drums ->
d2t05 - Space ->
d2t06 - I Need A Miracle ->
d2t07 - Black Peter ->
d2t08 - Throwing Stones ->
d2t09 - Not Fade Away

Encore:
d1t09 - Not Fade Away ->
d1t10 - Knockin' On Heaven's Door
d1t11 - One More Saturday


SHNTOOL OUTPUT:
    length     expanded size   cdr  WAVE problems filename
     7:07.40       75416924    ---   --   -----   gd87-11-07d1t01.wav
     6:22.41       67481276    ---   --   -----   gd87-11-07d1t02.wav
    10:34.06      111851756    ---   --   -----   gd87-11-07d1t03.wav
     5:43.37       60592268    ---   --   -----   gd87-11-07d1t04.wav
     7:12.35       76287164    ---   --   -----   gd87-11-07d1t05.wav
     6:20.44       67135532    ---   --   -----   gd87-11-07d1t06.wav
     6:33.59       69464012    ---   --   -----   gd87-11-07d1t07.wav
     4:57.22       52442588    ---   --   -----   gd87-11-07d1t08.wav
     1:06.15       11677724    ---   --   -----   gd87-11-07d1t09.wav
    11:10.11      118213916    ---   --   -----   gd87-11-07d1t10.wav
     5:14.09       55410812    ---   --   -----   gd87-11-07d1t11.wav
     7:54.06       83627756    ---   --   -----   gd87-11-07d2t01.wav
     9:24.46       99597836    ---   --   -----   gd87-11-07d2t02.wav
    13:31.07      143076908    ---   --   -----   gd87-11-07d2t03.wav
     9:04.06       95975756    ---   --   -----   gd87-11-07d2t04.wav
     6:39.39       70475372    ---   --   -----   gd87-11-07d2t05.wav
     3:32.67       37554428    ---   --   -----   gd87-11-07d2t06.wav
     8:39.65       91704524    ---   --   -----   gd87-11-07d2t07.wav
     9:15.49       98017292    ---   --   -----   gd87-11-07d2t08.wav
    10:02.32      106268108    ---   --   -----   gd87-11-07d2t09.wav
   150:26.36     1592271952 B                     (totals for 20 files)

Show Checksums
ffp
gd87-11-07d1t01.flac:f8e258c52d9f38fb3d04ec022aeb1fea
gd87-11-07d1t02.flac:c4cccade2fe9d44a83a496b3a4518efd
gd87-11-07d1t03.flac:0890e5c6ea66095e772f3abdf131cd85
gd87-11-07d1t04.flac:c6143044dc33489b642a04791afc58f0
gd87-11-07d1t05.flac:7acf5c02211ab5e67d4dc3829fec902f
gd87-11-07d1t06.flac:2259e85c6759bcc0fc681419b2c71189
gd87-11-07d1t07.flac:e02160a62115983d0c360fcd2e937a31
gd87-11-07d1t08.flac:7fd5115a42944c0dcc7c8fdc70ea9b59
gd87-11-07d1t09.flac:bf2e3836ff42476ab45d4c3084c5f2d1
gd87-11-07d1t10.flac:7866480864af2015f9a1a31856090594
gd87-11-07d1t11.flac:26f3a8d3d2e61b8abaecba7180583698
gd87-11-07d2t01.flac:a42609dccfaa739883599bf92f76dc23
gd87-11-07d2t02.flac:ad3b7703046478dacfb38ec2fce66e6a
gd87-11-07d2t03.flac:afd96b77fc93977c62ad6d056fe78192
gd87-11-07d2t04.flac:3bbf0d738cccc28e1b8500b9dd34d47a
gd87-11-07d2t05.flac:9d4b276083c4ceaeca493a8e06183a4d
gd87-11-07d2t06.flac:747e5d9091e01c4496473f4251635f91
gd87-11-07d2t07.flac:842b5653f448eb13ce919aa9f4cc481c
gd87-11-07d2t08.flac:e3587a6b262a2e46152b59a422e728ed
gd87-11-07d2t09.flac:402d46d0f7e1cf3e80faced8f341ea95
flac-md5
bd577f55b65db665be680adc9c4146b0 *gd87-11-07d1t01.flac
d899714dd16a39dcec6f53be26460d03 *gd87-11-07d1t02.flac
6992c7e25f460abc3123aa5e0d4ba06a *gd87-11-07d1t03.flac
37ef2318860d6c0ea2a67ce6232f77f7 *gd87-11-07d1t04.flac
230c58ccf43d9e399bce07c95a8e3d7a *gd87-11-07d1t05.flac
e4f721f40296e0edb627c0fccadeb9b6 *gd87-11-07d1t06.flac
340afe09e7000552b4b31527d65836d9 *gd87-11-07d1t07.flac
e144ca2a945e69292d96c6907c72284a *gd87-11-07d1t08.flac
ac96f628f432a2828df895b5531a8708 *gd87-11-07d1t09.flac
282536202b87ccc95fa4e260c9274d78 *gd87-11-07d1t10.flac
c59f8fe33e9bbcae7a886ba6a4c01dc6 *gd87-11-07d1t11.flac
7204ccea06f8fa112d1c79b8d142b3d2 *gd87-11-07d2t01.flac
025b7e044779815a8bc9ba1c43f44bf5 *gd87-11-07d2t02.flac
d17e9feb4a22cbe0440954fe63d5be3b *gd87-11-07d2t03.flac
0c84327cce948498240586f5b211ed8e *gd87-11-07d2t04.flac
1a23d6a4dcc0514a4a26bb3b1b3c10d3 *gd87-11-07d2t05.flac
15f29736a6ff099adab27b12e024eb4a *gd87-11-07d2t06.flac
1bd2de8824d4a061e8ec2c2c15a58d79 *gd87-11-07d2t07.flac
0c1543e82a5639318f732f7d3d8ebbc9 *gd87-11-07d2t08.flac
e71c721a4e42c29bdef20c915a81b350 *gd87-11-07d2t09.flac

Comments
Add Comment
Other Sources (comments)
SBD > PCM > CDR; Transfer:... (0) flac16 Remaster of... (0) flac24; First... (0) flac16; First... (0) flac16; Recording... (0) flac16; Sbd > ? >... (0)
Date User Comment