Browse Collections Artists Sources   Search Dates

Add Show    List Management    Help


Robert Hunter 11/12/90
Charlottesville Performing Arts Center, Charlottesville, VA
Comments Add Comment    Source Collectors    Add to Collection    Add to Want List    History
Source # 84019 Other Sources
Entered by
Checksums md5 , ffp
Disc Counts 1 / 2
Media Size
Date Circulated
Date Added
04/08/2007
04/09/2007
Source Summary flac16: Soundboard -> Master DAT -> PCM ->DAT(2); Transfer: DAT(2) > Panasonic sv-3700 (spdif out) -> Lynx L22 (spdif in) -> Soundforge 8.0 16bit/44.1kHz wav > FLAC 
Source Information - Download Text | Download Zip
Robert Hunter
Monday November 12, 1990
Charlottesville Performing Arts Center
Charlottesville, VA

Recording Details-
Soundboard -> Master DAT -> PCM ->DAT(2)

GEMS Provider- From the collection of Chris 'Kip' Nestler
chris DOT nestler AT gmail DOT com
goodoldaze at LL and JP

Lineage- Dat(2) clone
Panasonic brand 120 minute DAT

Transfer Details-
Transfer by Chris 'Kip' Nestler April 2007
DAT(2) > Panasonic sv-3700 (spdif out) ->
Lynx L22 (spdif in) -> Soundforge 8.0 16bit/44.1kHz wav

Editing Info-
All editing and mastering by Jamie Waddell
Wavelab 6.0  April 8, 2007
16/44.1 SBE FREE

For Robert Hunter Gauvin b. March 29, 2007

A GEMS production -+-+- www.shnflac.net -+-+-  April 2007
What's in your closet?



SET 1
1.tuning
2.The Wheel ->  
3.End Of The Road ->  
4.The Wheel  
5.New Speedway Boogie  
6.talk and tuning
7.Silvio  
8.Tales Of The Great Rum Runners
9.talk and smoke break
10.Jack Straw
11.Cruel White Water  
12.Standing On The Moon


SET 2

1.Uncle John's Band  
2.Tiger Rose  
3.Ruben And Cherise  
4.Deal(false start)
5.Deal
6.Talk and tuning  
7.Don't Think Twice It's Alright  
8.It Must Have Been The Roses  
9.Stella Blue  
10. Mr. Charlie ->  
11.Ugliest Girl In The World ->  
12.Easy Wind  
13.Terrapin Station  
14.encore break
     ENCORE
15.Promotory Rider  
16.Ripple  
17.Boys In The Barroom*  

* Acappella

Other notes:
1:01:46  Drop out (2 seconds?)..made listenable..
         no patch source exists..smoothed harshness
1:07:12  Hunter has monitor trouble
1:07:25  Drop out (2 seconds?)...repaired
1:48:44  Sounds like deck was paused for encore break..smoothed
1:49:14  Another deck pause..smoothed
1:49:18  One second of other music?...repaired
1:59:48  Guitar unplugged or put down?..all better
2:01:30  Deck stopped..fade applied
2:01:31  Dead air through end of file..deleted

flac fingerprint file generated by Trader's Little Helper
generated on April 8, 2007, at 2:42 pm

rh1990-11-12.GEMS.d1t01.flac:4e3629e22e55700394850356e5f8db7d
rh1990-11-12.GEMS.d1t02.flac:9a1515b183c248c454246d2f132fa043
rh1990-11-12.GEMS.d1t03.flac:13d449fa3ba08fcd29a2a94aa5a08890
rh1990-11-12.GEMS.d1t04.flac:ec66238234b29eedbddc441a34156856
rh1990-11-12.GEMS.d1t05.flac:71a4c5639392849bc864ef7f147ee1b5
rh1990-11-12.GEMS.d1t06.flac:810f4051670c76ba7441a9fa7801e3c2
rh1990-11-12.GEMS.d1t07.flac:71592992191728806320e3fe7a48f6d9
rh1990-11-12.GEMS.d1t08.flac:02d1eb02456e1931a5cabd9fb1ee3279
rh1990-11-12.GEMS.d1t09.flac:9b027f6c0ee109e86ef152a329daae86
rh1990-11-12.GEMS.d1t10.flac:662daa97500a48246a5ffc164dd091fd
rh1990-11-12.GEMS.d1t11.flac:bbdb4956e0d6444df8e07f41a5735b14
rh1990-11-12.GEMS.d1t12.flac:7b46a9c57b7cdf0843c11136fde6f1f7
rh1990-11-12.GEMS.d2t01.flac:0d933b28e05ba11c479fcf8b43a2eeef
rh1990-11-12.GEMS.d2t02.flac:d8fbea0c827f0e7465b6305304eab211
rh1990-11-12.GEMS.d2t03.flac:1d911a582ca43b1006d702305c13e8f7
rh1990-11-12.GEMS.d2t04.flac:f1409fccc6c05ceef4f7b82003c7df3f
rh1990-11-12.GEMS.d2t05.flac:2720db2776fd0d2a39f5e16081e64717
rh1990-11-12.GEMS.d2t06.flac:455a56676c277c8dad0c15b638ed6a9a
rh1990-11-12.GEMS.d2t07.flac:d0223a5f942513e72933fd414571402d
rh1990-11-12.GEMS.d2t08.flac:ce0df6a61cd54e37f718066a0db8ece2
rh1990-11-12.GEMS.d2t09.flac:a8f9d29ae828326a09106c1f7fbf1e97
rh1990-11-12.GEMS.d2t10.flac:67c668f5710c7cad382375b81ff5464d
rh1990-11-12.GEMS.d2t11.flac:71e3567fc1eb0efa21a343e259e9215a
rh1990-11-12.GEMS.d2t12.flac:75d8a31a5852bc7b2b3992ce1cc71138
rh1990-11-12.GEMS.d2t13.flac:25bb2d908874ce5c15e89461ab8d6eae
rh1990-11-12.GEMS.d2t14.flac:0e01141716ccd9b9921bb11e63c6fef5
rh1990-11-12.GEMS.d2t15.flac:6adae425f4e758ea7df16afd7784a002
rh1990-11-12.GEMS.d2t16.flac:da0843661def5ed727191d6bb77ee9e0
rh1990-11-12.GEMS.d2t17.flac:8ee10bb2373893cdbaaf546a59d69e86

    length     expanded size   cdr  WAVE problems filename
     0:48.01        8469596    ---   --   ---xx   rh1990-11-12.GEMS.d1t01.flac
     3:27.01       36517196    ---   --   ---xx   rh1990-11-12.GEMS.d1t02.flac
     3:49.18       40437980    ---   --   ---xx   rh1990-11-12.GEMS.d1t03.flac
     1:07.42       11917628    ---   --   ---xx   rh1990-11-12.GEMS.d1t04.flac
     4:02.43       42789980    ---   --   ---xx   rh1990-11-12.GEMS.d1t05.flac
     2:07.26       22463996    ---   --   ---xx   rh1990-11-12.GEMS.d1t06.flac
     5:07.25       54213644    ---   --   ---xx   rh1990-11-12.GEMS.d1t07.flac
     3:53.04       41110652    ---   --   ---xx   rh1990-11-12.GEMS.d1t08.flac
     4:32.17       48020828    ---   --   ---xx   rh1990-11-12.GEMS.d1t09.flac
     4:28.24       47331692    ---   --   ---xx   rh1990-11-12.GEMS.d1t10.flac
     7:08.66       75654476    ---   --   ---xx   rh1990-11-12.GEMS.d1t11.flac
     6:55.38       73295420    ---   --   ---xx   rh1990-11-12.GEMS.d1t12.flac
     4:41.65       49721324    ---   --   ---xx   rh1990-11-12.GEMS.d2t01.flac
     4:23.35       46475564    ---   --   ---xx   rh1990-11-12.GEMS.d2t02.flac
    10:12.45      108062684    ---   --   ---xx   rh1990-11-12.GEMS.d2t03.flac
     0:35.62        6319868    ---   --   ---xx   rh1990-11-12.GEMS.d2t04.flac
     3:14.08       34240460    ---   --   ---xx   rh1990-11-12.GEMS.d2t05.flac
     2:28.64       26257772    ---   --   ---xx   rh1990-11-12.GEMS.d2t06.flac
     2:57.25       31281644    ---   --   ---xx   rh1990-11-12.GEMS.d2t07.flac
     4:18.67       45668828    ---   --   ---xx   rh1990-11-12.GEMS.d2t08.flac
     6:43.71       71256236    ---   --   ---xx   rh1990-11-12.GEMS.d2t09.flac
     2:30.69       26622332    ---   --   ---xx   rh1990-11-12.GEMS.d2t10.flac
     2:12.41       23381276    ---   --   ---xx   rh1990-11-12.GEMS.d2t11.flac
     4:24.37       46656668    ---   --   ---xx   rh1990-11-12.GEMS.d2t12.flac
    12:28.36      132031916    ---   --   ---xx   rh1990-11-12.GEMS.d2t13.flac
     0:49.48        8756540    ---   --   ---xx   rh1990-11-12.GEMS.d2t14.flac
     6:13.69       65959532    ---   --   ---xx   rh1990-11-12.GEMS.d2t15.flac
     4:01.34       42592412    ---   --   ---xx   rh1990-11-12.GEMS.d2t16.flac
     1:35.60       16899164    ---   --   ---xx   rh1990-11-12.GEMS.d2t17.flac
   121:21.16     1284407308 B                     (totals for 29 files, 0.4949 overall compression ratio)
Show Checksums
md5
effb3770e820e90a278a22923259c2f6 *rh1990-11-12.GEMS.d1t01.flac
bbe9f5eb297efbba7a8899cd6a1e680b *rh1990-11-12.GEMS.d1t02.flac
bb7f93b3301e283f26007c2953607523 *rh1990-11-12.GEMS.d1t03.flac
f1d803263948ac95b7cccaa7e184afd2 *rh1990-11-12.GEMS.d1t04.flac
09623dc35cf1c02b36edcb87910fc367 *rh1990-11-12.GEMS.d1t05.flac
71daf515a3eec712e3335f91380dba85 *rh1990-11-12.GEMS.d1t06.flac
0bda10f94504792da7f3034b486bbd14 *rh1990-11-12.GEMS.d1t07.flac
8648759e66d2886f8d9bcab417c93fe5 *rh1990-11-12.GEMS.d1t08.flac
c6508d473abb8bd13d2c90b2fdfcad24 *rh1990-11-12.GEMS.d1t09.flac
04a4b0b8fdcb7581852bd8302de1b560 *rh1990-11-12.GEMS.d1t10.flac
2f7c55a3246d7b389c9d89d3bbfd0f3f *rh1990-11-12.GEMS.d1t11.flac
708d726512fe637f7e4649d79c8e839d *rh1990-11-12.GEMS.d1t12.flac
368770f6584ab5de4f604e6815a8ee22 *rh1990-11-12.GEMS.d2t01.flac
66cfd74f770b6bde7f48ac9c7e87117b *rh1990-11-12.GEMS.d2t02.flac
ea98ea83f0e3128b8942a5f69597e11b *rh1990-11-12.GEMS.d2t03.flac
3c69786146e6a2e90d7e7e3ed0f5c60f *rh1990-11-12.GEMS.d2t04.flac
c0ceec81d3cb84f49ee1363514531237 *rh1990-11-12.GEMS.d2t05.flac
dccbd555876d783a70a59af24b13e860 *rh1990-11-12.GEMS.d2t06.flac
e8066eceb105bfe3218a029188d2b92d *rh1990-11-12.GEMS.d2t07.flac
3f64553af2b1ee7ce493020fc816dd4c *rh1990-11-12.GEMS.d2t08.flac
3e18245965a1b9cc9e48146da1970689 *rh1990-11-12.GEMS.d2t09.flac
1f790afedef21b721b5cc7dc45c8dc9f *rh1990-11-12.GEMS.d2t10.flac
3f97a55499661ec45801381e1c8aba92 *rh1990-11-12.GEMS.d2t11.flac
2c9df085b52e1f3404994035f41f2ac1 *rh1990-11-12.GEMS.d2t12.flac
6a60da8727f14496a0bddc434a820729 *rh1990-11-12.GEMS.d2t13.flac
50a50f22b4be3afffc113024967220e7 *rh1990-11-12.GEMS.d2t14.flac
e6e70fbeafc3c7eb1ee284c1045cb9cb *rh1990-11-12.GEMS.d2t15.flac
3bb68a4564d72ec0617c68266ea306b0 *rh1990-11-12.GEMS.d2t16.flac
bad977096cbf74f650ffc62997e92c2e *rh1990-11-12.GEMS.d2t17.flac
4a6301d4c0282e2e7fb97481923942f8 *rh1990-11-12.sbd.GEMS.Nestler.xxxxx.sbeok.flac16.txt
ef3845f3af34e15de9e2581af7cc3f14 *rh1990-11-12.sbd.GEMS.xxxxx.flac16.ffp
e79883f390ee3e12ceb3bec3d829e35b *rh1990-11-12.sbd.GEMS.xxxxx.flac16.shntool.txt
ffp
rh1990-11-12.GEMS.d1t01.flac:4e3629e22e55700394850356e5f8db7d
rh1990-11-12.GEMS.d1t02.flac:9a1515b183c248c454246d2f132fa043
rh1990-11-12.GEMS.d1t03.flac:13d449fa3ba08fcd29a2a94aa5a08890
rh1990-11-12.GEMS.d1t04.flac:ec66238234b29eedbddc441a34156856
rh1990-11-12.GEMS.d1t05.flac:71a4c5639392849bc864ef7f147ee1b5
rh1990-11-12.GEMS.d1t06.flac:810f4051670c76ba7441a9fa7801e3c2
rh1990-11-12.GEMS.d1t07.flac:71592992191728806320e3fe7a48f6d9
rh1990-11-12.GEMS.d1t08.flac:02d1eb02456e1931a5cabd9fb1ee3279
rh1990-11-12.GEMS.d1t09.flac:9b027f6c0ee109e86ef152a329daae86
rh1990-11-12.GEMS.d1t10.flac:662daa97500a48246a5ffc164dd091fd
rh1990-11-12.GEMS.d1t11.flac:bbdb4956e0d6444df8e07f41a5735b14
rh1990-11-12.GEMS.d1t12.flac:7b46a9c57b7cdf0843c11136fde6f1f7
rh1990-11-12.GEMS.d2t01.flac:0d933b28e05ba11c479fcf8b43a2eeef
rh1990-11-12.GEMS.d2t02.flac:d8fbea0c827f0e7465b6305304eab211
rh1990-11-12.GEMS.d2t03.flac:1d911a582ca43b1006d702305c13e8f7
rh1990-11-12.GEMS.d2t04.flac:f1409fccc6c05ceef4f7b82003c7df3f
rh1990-11-12.GEMS.d2t05.flac:2720db2776fd0d2a39f5e16081e64717
rh1990-11-12.GEMS.d2t06.flac:455a56676c277c8dad0c15b638ed6a9a
rh1990-11-12.GEMS.d2t07.flac:d0223a5f942513e72933fd414571402d
rh1990-11-12.GEMS.d2t08.flac:ce0df6a61cd54e37f718066a0db8ece2
rh1990-11-12.GEMS.d2t09.flac:a8f9d29ae828326a09106c1f7fbf1e97
rh1990-11-12.GEMS.d2t10.flac:67c668f5710c7cad382375b81ff5464d
rh1990-11-12.GEMS.d2t11.flac:71e3567fc1eb0efa21a343e259e9215a
rh1990-11-12.GEMS.d2t12.flac:75d8a31a5852bc7b2b3992ce1cc71138
rh1990-11-12.GEMS.d2t13.flac:25bb2d908874ce5c15e89461ab8d6eae
rh1990-11-12.GEMS.d2t14.flac:0e01141716ccd9b9921bb11e63c6fef5
rh1990-11-12.GEMS.d2t15.flac:6adae425f4e758ea7df16afd7784a002
rh1990-11-12.GEMS.d2t16.flac:da0843661def5ed727191d6bb77ee9e0
rh1990-11-12.GEMS.d2t17.flac:8ee10bb2373893cdbaaf546a59d69e86

Comments
Add Comment
Date User Comment