Browse Collections Artists Sources   Search Dates

Add Show    List Management    Help


Grateful Dead 04/09/89
Freedom Hall, Louisville, KY
Comments Add Comment    Source Collectors    Add to Collection    Add to Want List    History
Source # 84036 Other Sources
Entered by Matt Vernon
Checksums ffp , flac-md5
Disc Counts 2 / 3
Media Size
Date Circulated
Date Added
04/10/1989
04/10/2007
Source Summary flac16; source: aud > Nak 300 shotguns > WMD-6 > mac taped by John Bleich transfer: mac > AIWA HX PRO AD-F410 > Creative Extigy > Wavelab > wav > flac transfered at 24/48, downsampled to 16/44.1 and dithered with iZotope Ozone 
  Archive
Source Information - Download Text | Download Zip
Grateful Dead
Freedom Hall
Louisville, KY
04/09/1989

source: aud > Nak 300 shotguns > WMD-6 > mac
taped by John Bleich

transfer: mac > AIWA HX PRO AD-F410 > Creative Extigy > Wavelab > wav > flac; transfered at 24/48, downsampled to 16/44.1 and dithered with iZotope Ozone



Disc1
set I

01   tuning
02   Hell In A Bucket
03   Sugaree
04   Walkin' Blues
05   tuning
06   It Must Have Been The Roses
07   tuning
08   Me And My Uncle >
09   Big River
10   Ramble On Rose
11   Desolation Row
12   Foolish Heart

Disc 2
set II

01   tuning
02   Louie Louie
03   Man Smart, Woman Smarter
04   Ship of Fools
05   Estimated Prophet >
06   Uncle John's Band >
07   Jam [1:39] >
08   Drums//

Disc 3
set II cont'd

01   //Space >
02   The Other One >
03   Stella Blue >
04   Sugar Magnolia

encore

05   Knockin' On Heaven's Door


Many thanks to John for lending me his tapes.


transferred, edited and mastered
SIRMick
April 2007


shntool output:

    length     expanded size   cdr  WAVE problems filename
     1:41.14       17849372    ---   --   ---xx   gd1989-04-09d1t01.flac
     6:33.50       69442844    ---   --   ---xx   gd1989-04-09d1t02.flac
    10:08.27      107314748    ---   --   ---xx   gd1989-04-09d1t03.flac
     7:20.02       77620748    ---   --   ---xx   gd1989-04-09d1t04.flac
     1:31.72       16221788    ---   --   ---xx   gd1989-04-09d1t05.flac
     5:35.61       59237516    ---   --   ---xx   gd1989-04-09d1t06.flac
     1:22.08       14483660    ---   --   ---xx   gd1989-04-09d1t07.flac
     3:14.52       34343948    ---   --   ---xx   gd1989-04-09d1t08.flac
     6:19.42       66954428    ---   --   ---xx   gd1989-04-09d1t09.flac
     7:02.05       74452604    ---   --   ---xx   gd1989-04-09d1t10.flac
    10:49.13      114514220    ---   --   ---xx   gd1989-04-09d1t11.flac
     8:14.51       87261596    ---   --   ---xx   gd1989-04-09d1t12.flac
     1:17.28       13648700    ---   --   ---xx   gd1989-04-09d2t01.flac
     4:45.30       50344604    ---   --   ---xx   gd1989-04-09d2t02.flac
     7:00.15       74123324    ---   --   ---xx   gd1989-04-09d2t03.flac
     7:01.47       74374988    ---   --   ---xx   gd1989-04-09d2t04.flac
    11:35.52      122720348    ---   --   ---xx   gd1989-04-09d2t05.flac
     7:29.34       79283612    ---   --   ---xx   gd1989-04-09d2t06.flac
     2:29.40       26377724    ---   --   ---xx   gd1989-04-09d2t07.flac
     5:47.04       61220252    ---   --   ---xx   gd1989-04-09d2t08.flac
     7:51.61       83227916    ---   --   ---xx   gd1989-04-09d3t01.flac
     7:30.34       79460012    ---   --   ---xx   gd1989-04-09d3t02.flac
     8:16.24       87550892    ---   --   ---xx   gd1989-04-09d3t03.flac
     9:18.24       98487692    ---   --   ---xx   gd1989-04-09d3t04.flac
     7:37.74       80788892    ---   --   ---xx   gd1989-04-09d3t05.flac
   157:54.39     1671306428 B                     (totals for 25 files, 0.5571 overall compression ratio)
Show Checksums
ffp
gd1989-04-09d1t01.flac:7e8a0a3e58a8a591a38e2c85a2a08393
gd1989-04-09d1t02.flac:fed3924424d52e29206b2b045b5108c5
gd1989-04-09d1t03.flac:1715c65742d01a08dbe8a335e9523018
gd1989-04-09d1t04.flac:d49ff12d1f22847000a6b6d6789fd2e4
gd1989-04-09d1t05.flac:a645e07305b01a6b689034add284fa21
gd1989-04-09d1t06.flac:e3462c3f1c08752a7d1d343187f18f86
gd1989-04-09d1t07.flac:29bef48a1cb8103a4faf4f8363ab24e2
gd1989-04-09d1t08.flac:d9ed6512e12e5bb02d58378746cf5429
gd1989-04-09d1t09.flac:7953312c6b4e099a8d0b4a98259a47dc
gd1989-04-09d1t10.flac:b5675ff6c5d0d8d6ace5e74471424619
gd1989-04-09d1t11.flac:b4e261b0db7ba185a465262978db5ada
gd1989-04-09d1t12.flac:58b6cc260de60990a9c79732a58390d4
gd1989-04-09d2t01.flac:699647abf364910cfd678690fd3a6519
gd1989-04-09d2t02.flac:17e051ba879194cbf49821369efd06fb
gd1989-04-09d2t03.flac:a8ebbf55e2a523931afeb3833f5bad8f
gd1989-04-09d2t04.flac:ff337a2015147442bbc42c95e432306c
gd1989-04-09d2t05.flac:a1130e919461e57a5caba5ea5d55fb38
gd1989-04-09d2t06.flac:dda4077a06d88bb67ce80896e85a0a68
gd1989-04-09d2t07.flac:0eece7108ca7b92595795fbf00abca2b
gd1989-04-09d2t08.flac:1edabf83e5589065627fafdb80f544f8
gd1989-04-09d3t01.flac:c3b7bfb2d96badd0043b4163b2b161af
gd1989-04-09d3t02.flac:322e9b2ea545e403e45d20dc198c5055
gd1989-04-09d3t03.flac:7087e4fab1680ea6077e3f61b68a3b06
gd1989-04-09d3t04.flac:6c7eb7fe90050ba330cc8a2c8347bb04
gd1989-04-09d3t05.flac:9fc7fb1a2e5a5bbddf5ca50701e718af
flac-md5
4f6d842ff489b9a091c5c50ee2930081 *gd1989-04-09d1t01.flac
8964520f2bfb020337ea8712e3680d3f *gd1989-04-09d1t02.flac
ea388d78f20f43b4f4b0518bf478cbad *gd1989-04-09d1t03.flac
9da82af366f324fda1392918132f136b *gd1989-04-09d1t04.flac
d5ba737afd1cf5448b8c8f43651c49c7 *gd1989-04-09d1t05.flac
08350604981d0b7f86f57d8026874718 *gd1989-04-09d1t06.flac
343141b976df933d22888a3625281e27 *gd1989-04-09d1t07.flac
0701100ff1c8eec4e662cd768ecf620f *gd1989-04-09d1t08.flac
27b50d4f2d0273228ea81c89215aa607 *gd1989-04-09d1t09.flac
7b8aa8da81bed1484d884320fdd2ba91 *gd1989-04-09d1t10.flac
d22feb795bc165c097b34f7ca5f53c7d *gd1989-04-09d1t11.flac
b33966d92e9e6a866176d766584d08c3 *gd1989-04-09d1t12.flac
a6740f8ec2a8f1403c2458f248a40a34 *gd1989-04-09d2t01.flac
3e89eabc29e8c68f85d355cabc4921dc *gd1989-04-09d2t02.flac
a53780c1c3352ab2d800ec85e9ee6945 *gd1989-04-09d2t03.flac
1ced50fb83d8ffc2d714fcbbeb1b1067 *gd1989-04-09d2t04.flac
0fbd6cbb41670a6630dab94eabeade1c *gd1989-04-09d2t05.flac
2c99c765ed29640cb773deac97a95504 *gd1989-04-09d2t06.flac
4e3f001ec4ac78e556c8f6739d8b9cb3 *gd1989-04-09d2t07.flac
1038f75220ba38c45f00f631384d85ba *gd1989-04-09d2t08.flac
eda836a0c46d54fd087e11453ad28a15 *gd1989-04-09d3t01.flac
3df279c8cd0ccb203c2df3f3a2239750 *gd1989-04-09d3t02.flac
f6f221b79fc6e070e8b11761ac4da86a *gd1989-04-09d3t03.flac
f12572421e03d1c518d090dcc6e633c5 *gd1989-04-09d3t04.flac
19a7cd2a17346efde6195bfe10298e18 *gd1989-04-09d3t05.flac

Comments
Add Comment
Other Sources (comments)
Digital Audience - Jill &... (0) SBD> CM> DAT> CD> EAC> SHN;... (3) flac16; SBD> CM>... (0) flac16; Seamless fix... (2) flac16; Source:... (1) flac16/48kHz;... (0)
Date User Comment