Browse Collections Artists Sources   Search Dates

Add Show    List Management    Help


Outformation 02/09/07
The Lions Den, New York, NY
Comments Add Comment    Source Collectors    Add to Collection    Add to Want List    History
Source # 84106 Other Sources
Entered by Todd
Checksums ffp
Disc Counts 1 / 2
Media Size
Date Circulated
Date Added
02/10/2007
04/11/2007
Source Summary SBD + (FOB) Schoeps MK41v/KC5/M222/NT222 > SD744t > WaveLab > CDWav > Flac(6)
Taped and transfered by Charles Fox 
  Archive
Source Information - Download Text | Download Zip
Outformation
The Lions Den
New York, NY
2007-02-09

source: Schoeps mk41v(dina)~>kc5~>m222~>nt222 + SBD(Midas Venice 320)~>744t @ (24/48)
location: fob/dfc
transfer: 744t~>wavelab5~>cdwave~>wavelab5~flac(6)
recorded & seeded: charles fox

O: disc 1
01 Dark Severinsen
02 American Spirit
03 Tennessee Before Daylight
04 Carnac
05 Solid Country Gold
06 Later
07 Valley Blue
08 Into My Arms
09 Burned Faceless >
10 Cattle Drive >
11 Stone In My Shoe

0: disc 2
01 90
02 Searchin' For A Rainbow

ffp
outformation2007-02-09d1t01.flac:ed10f240a48ba8df07b7f9f892440a68
outformation2007-02-09d1t02.flac:94b66d8773468a692efa12355dab4d2f
outformation2007-02-09d1t03.flac:826a6a8e75a087fd77173a315bf46069
outformation2007-02-09d1t04.flac:fd29bfec6fba8a4c059e8b81a7b57896
outformation2007-02-09d1t05.flac:4b058ff3db8fbb5a5a8461285f1c91e7
outformation2007-02-09d1t06.flac:3415950a37692ab0fbf35518a736548f
outformation2007-02-09d1t07.flac:8172fb8885a7756dedd0ceb1c05525d1
outformation2007-02-09d1t08.flac:4cc5542bb0f2a85d854f341c480f57f3
outformation2007-02-09d1t09.flac:fbe97f88dd5e6e9ad6cdfc0c4d4ddedf
outformation2007-02-09d1t10.flac:62e5d60c3972e1a0738e5166e2019bec
outformation2007-02-09d1t11.flac:4f129089dbb3a40a363ef53607d1d5dd
outformation2007-02-09d2t01.flac:f42120db9c2e93a87f37fff790398513
outformation2007-02-09d2t02.flac:db71ef9cccc75e10afb0b95d77377f44

shntool
    length     expanded size   cdr  WAVE problems filename
     7:10.54       75979052    ---   --   ---xx   outformation2007-02-09d1t01.flac
     8:21.10       88399964    ---   --   ---xx   outformation2007-02-09d1t02.flac
     6:40.12       70588268    ---   --   ---xx   outformation2007-02-09d1t03.flac
     9:04.03       95968700    ---   --   ---xx   outformation2007-02-09d1t04.flac
     4:01.21       42561836    ---   --   ---xx   outformation2007-02-09d1t05.flac
     5:51.65       62069324    ---   --   ---xx   outformation2007-02-09d1t06.flac
     2:58.52       31521548    ---   --   ---xx   outformation2007-02-09d1t07.flac
     7:55.43       83891180    ---   --   ---xx   outformation2007-02-09d1t08.flac
     5:17.09       55940012    ---   --   ---xx   outformation2007-02-09d1t09.flac
     8:20.06       88214156    ---   --   ---xx   outformation2007-02-09d1t10.flac
    13:37.06      144132956    ---   --   ---xx   outformation2007-02-09d1t11.flac
    11:34.59      122560412    ---   --   ---xx   outformation2007-02-09d2t01.flac
     7:25.34       78578012    ---   --   ---xx   outformation2007-02-09d2t02.flac
    98:17.74     1040405420 B                     (totals for 13 files, 0.5712 overall compression ratio)
Show Checksums
ffp
outformation2007-02-09d1t01.flac:ed10f240a48ba8df07b7f9f892440a68
outformation2007-02-09d1t02.flac:94b66d8773468a692efa12355dab4d2f
outformation2007-02-09d1t03.flac:826a6a8e75a087fd77173a315bf46069
outformation2007-02-09d1t04.flac:fd29bfec6fba8a4c059e8b81a7b57896
outformation2007-02-09d1t05.flac:4b058ff3db8fbb5a5a8461285f1c91e7
outformation2007-02-09d1t06.flac:3415950a37692ab0fbf35518a736548f
outformation2007-02-09d1t07.flac:8172fb8885a7756dedd0ceb1c05525d1
outformation2007-02-09d1t08.flac:4cc5542bb0f2a85d854f341c480f57f3
outformation2007-02-09d1t09.flac:fbe97f88dd5e6e9ad6cdfc0c4d4ddedf
outformation2007-02-09d1t10.flac:62e5d60c3972e1a0738e5166e2019bec
outformation2007-02-09d1t11.flac:4f129089dbb3a40a363ef53607d1d5dd
outformation2007-02-09d2t01.flac:f42120db9c2e93a87f37fff790398513
outformation2007-02-09d2t02.flac:db71ef9cccc75e10afb0b95d77377f44

Comments
Add Comment
Date User Comment