Browse Collections Artists Sources   Search Dates

Add Show    List Management    Help


Outformation 02/14/07
Stella Blue, Asheville, NC
Comments Add Comment    Source Collectors    Add to Collection    Add to Want List    History
Source # 84107 Other Sources
Entered by Todd
Checksums ffp
Disc Counts 2 / 3
Media Size
Date Circulated
Date Added
02/15/2007
04/11/2007
Source Summary SBD + (Stage) Schoeps MK4v/KC5/M222/NT222 > SD744t > CDWav > WaveLab > Flac(6)
Taped and transfered by Charles Fox 
  Archive
Source Information - Download Text | Download Zip
Outformation
Stella Blue
Asheville, NC
2007-02-14

source: Schoeps mk4v(din)~>kc5~>m222~>nt222 +SBD(Soundcraft Series Two)~>744t @ (24/48)
location: onstage/dfc
transfer: 744t~>cdwave~>wavelab5~>flac(6)
recorded & seeded: charles fox

set 1 disc 1
01 Jam >
02 Winds >
03 Start It Out Again
04 Carnac
05 Center Stage
06 Dark Severinsen
07 Can't Change The Past
08 Into My Arms
09 'Bout My Money*

set 2 disc 2
01 Sweet Louisiana
02 Traveler's Rest
03 Blue Ridge Mountain Sky
04 B of D
05 Tennessee Before Daylight
06 Edgewater
07 Cattle Drive >
08 Titles Of Movies Will Not Appear On Bill >
09 Camper >
10 Titles Of Movies Will Not Appear On Bill >
11 The Other One Jam >
12 Basically Frightened >
13 Titles Of Movies Will Not Appear On Bill

set 2 disc 3
E:
01 Midnight Promises
02 West L.A. Fadeaway
03 Stone In My Shoe
04 SG

*Paul Augustino on keyboards

ffp
outformation2007-02-14d1t01.flac:352deeb2d11875ed38f5a6276e917c40
outformation2007-02-14d1t02.flac:109d7812989f36f32c3b7ecebfbd4957
outformation2007-02-14d1t03.flac:ab24560a1e4a543c8152e002b96b6e54
outformation2007-02-14d1t04.flac:45a157506a10d9a5f99238d2cb173507
outformation2007-02-14d1t05.flac:e0ba468c9c867bd64285b0bde78be743
outformation2007-02-14d1t06.flac:eb8ba10a5e7c5fce61fbb0ed163629c9
outformation2007-02-14d1t07.flac:ddd34c597c2d77beedea0392d27ba095
outformation2007-02-14d1t08.flac:f4eaab45de1ba75f319d3a882d27c4af
outformation2007-02-14d1t09.flac:1f296db9623fed23a4f1435bd7dcb080
outformation2007-02-14d2t01.flac:eded6baae94b292264370129a7da23f3
outformation2007-02-14d2t02.flac:a9500f6d7f5f6c4b126e0ff3f6934c44
outformation2007-02-14d2t03.flac:b0950dc516fb88e6ae4602c5aef8a568
outformation2007-02-14d2t04.flac:bdab5f401474e21686bf5b3c20b31d8c
outformation2007-02-14d2t05.flac:83c45812682f5a7d031695edf34aeb2a
outformation2007-02-14d2t06.flac:649c8808e940e89e3c0366791ebd1649
outformation2007-02-14d2t07.flac:20ce518ab6737e99b22576426c224137
outformation2007-02-14d2t08.flac:d355ac0edf7e28ffd0a9eb2e859bb24a
outformation2007-02-14d2t09.flac:5c5ab434ea6864f4daedca21f9096a78
outformation2007-02-14d2t10.flac:057b01206affd2282220aea833102c04
outformation2007-02-14d2t11.flac:b1953bd4b754ec5a44198253318372aa
outformation2007-02-14d2t12.flac:56ace705d1b54fac25a75e750e4a0ef8
outformation2007-02-14d2t13.flac:8e8b48fc032dbb5537955ba1b87e27e8
outformation2007-02-14d3t01.flac:864b8e3950bd9f1fff67d4eb6753ef38
outformation2007-02-14d3t02.flac:3c13d82e471bff377009cd5cab715634
outformation2007-02-14d3t03.flac:a41591e454bd1dfedfcd6a07d677b893
outformation2007-02-14d3t04.flac:5e8b0556a3a5315b88dc5f49b31c51fe

shntool
    length     expanded size   cdr  WAVE problems filename
     4:30.08       47646860    ---   --   ---xx   outformation2007-02-14d1t01.flac
     6:41.54       70863452    ---   --   ---xx   outformation2007-02-14d1t02.flac
    10:58.12      116099468    ---   --   ---xx   outformation2007-02-14d1t03.flac
     4:37.04       48872252    ---   --   ---xx   outformation2007-02-14d1t04.flac
    10:16.52      108784748    ---   --   ---xx   outformation2007-02-14d1t05.flac
     8:48.21       93188636    ---   --   ---xx   outformation2007-02-14d1t06.flac
     4:43.70       50085884    ---   --   ---xx   outformation2007-02-14d1t07.flac
     6:19.25       66914444    ---   --   ---xx   outformation2007-02-14d1t08.flac
    13:13.64      140035772    ---   --   ---xx   outformation2007-02-14d1t09.flac
     5:08.33       54408860    ---   --   ---xx   outformation2007-02-14d2t01.flac
     7:34.28       80151500    ---   --   ---xx   outformation2007-02-14d2t02.flac
    10:58.35      116153564    ---   --   ---xx   outformation2007-02-14d2t03.flac
     3:16.32       34649708    ---   --   ---xx   outformation2007-02-14d2t04.flac
     6:44.49       71380892    ---   --   ---xx   outformation2007-02-14d2t05.flac
     6:58.74       73909292    ---   --   ---xx   outformation2007-02-14d2t06.flac
    10:40.50      113013644    ---   --   ---xx   outformation2007-02-14d2t07.flac
     3:15.58       34534460    ---   --   ---xx   outformation2007-02-14d2t08.flac
     2:05.32       22125308    ---   --   ---xx   outformation2007-02-14d2t09.flac
     0:42.62        7554668    ---   --   ---xx   outformation2007-02-14d2t10.flac
     4:33.69       48319532    ---   --   ---xx   outformation2007-02-14d2t11.flac
     5:20.03       56455100    ---   --   ---xx   outformation2007-02-14d2t12.flac
     4:27.19       47143532    ---   --   ---xx   outformation2007-02-14d2t13.flac
     7:10.70       76016684    ---   --   ---xx   outformation2007-02-14d3t01.flac
     7:49.04       82741052    ---   --   ---xx   outformation2007-02-14d3t02.flac
    13:07.54      138953852    ---   --   ---xx   outformation2007-02-14d3t03.flac
     4:05.03       43225100    ---   --   ---xx   outformation2007-02-14d3t04.flac
   174:09.10     1843228264 B                     (totals for 26 files, 0.5519 overall compression ratio)
Show Checksums
ffp
outformation2007-02-14d1t01.flac:352deeb2d11875ed38f5a6276e917c40
outformation2007-02-14d1t02.flac:109d7812989f36f32c3b7ecebfbd4957
outformation2007-02-14d1t03.flac:ab24560a1e4a543c8152e002b96b6e54
outformation2007-02-14d1t04.flac:45a157506a10d9a5f99238d2cb173507
outformation2007-02-14d1t05.flac:e0ba468c9c867bd64285b0bde78be743
outformation2007-02-14d1t06.flac:eb8ba10a5e7c5fce61fbb0ed163629c9
outformation2007-02-14d1t07.flac:ddd34c597c2d77beedea0392d27ba095
outformation2007-02-14d1t08.flac:f4eaab45de1ba75f319d3a882d27c4af
outformation2007-02-14d1t09.flac:1f296db9623fed23a4f1435bd7dcb080
outformation2007-02-14d2t01.flac:eded6baae94b292264370129a7da23f3
outformation2007-02-14d2t02.flac:a9500f6d7f5f6c4b126e0ff3f6934c44
outformation2007-02-14d2t03.flac:b0950dc516fb88e6ae4602c5aef8a568
outformation2007-02-14d2t04.flac:bdab5f401474e21686bf5b3c20b31d8c
outformation2007-02-14d2t05.flac:83c45812682f5a7d031695edf34aeb2a
outformation2007-02-14d2t06.flac:649c8808e940e89e3c0366791ebd1649
outformation2007-02-14d2t07.flac:20ce518ab6737e99b22576426c224137
outformation2007-02-14d2t08.flac:d355ac0edf7e28ffd0a9eb2e859bb24a
outformation2007-02-14d2t09.flac:5c5ab434ea6864f4daedca21f9096a78
outformation2007-02-14d2t10.flac:057b01206affd2282220aea833102c04
outformation2007-02-14d2t11.flac:b1953bd4b754ec5a44198253318372aa
outformation2007-02-14d2t12.flac:56ace705d1b54fac25a75e750e4a0ef8
outformation2007-02-14d2t13.flac:8e8b48fc032dbb5537955ba1b87e27e8
outformation2007-02-14d3t01.flac:864b8e3950bd9f1fff67d4eb6753ef38
outformation2007-02-14d3t02.flac:3c13d82e471bff377009cd5cab715634
outformation2007-02-14d3t03.flac:a41591e454bd1dfedfcd6a07d677b893
outformation2007-02-14d3t04.flac:5e8b0556a3a5315b88dc5f49b31c51fe

Comments
Add Comment
Other Sources (comments)
(FOB/Ceiling) Neumann KM140... (0)
Date User Comment