Browse Collections Artists Sources   Search Dates

Add Show    List Management    Help


Outformation 02/15/07
Cat's Cradle, Carrboro, NC
Comments Add Comment    Source Collectors    Add to Collection    Add to Want List    History
Source # 84110 Other Sources
Entered by Todd
Checksums ffp
Disc Counts 2 / 3
Media Size
Date Circulated
Date Added
02/16/2007
04/11/2007
Source Summary SBD + (FOB) Schoeps MK41v/KC5/M222/NT222 > SD744t > WaveLab > CDWav > Flac
Taped and transfered by Charles Fox 
  Archive
Source Information - Download Text | Download Zip
Outformation
Cat's Cradle
Carrboro, NC
2007-02-15

source: Schoeps mk41v(dina)~>kc5~>m222~>nt222 + SBD(Crest Century Series)~>744t (24/48)
location: fob/loc
dsp: 744t~>wavelab5~>cdwave~>wavelab5~>flac(6)
recorded & seeded: charles fox

set 1 disc 1
01 Edgewater
02 Carnac
03 Into My Arms
04 Unwound
05 Anymore
06 The Take Out >
07 Can't Change The Past
08 Toy's Lament

set 2 disc 2
01 Birddogg Techno Jam >
02 Valley Blue
03 Traveler's Rest
04 You Got Yours
05 'Bout My Money
06 Later
07 Searchin' For A Rainbow >
08 Winds
09 SG
10 Long Hard Ride
11 Sweet Louisiana

set 2 disc 3
Encore:
01 Tuning
02 90
03 Solid Country Gold >
04 Jam >
05 Burned Faceless

Notes: First 'Anymore'

ffp
outformation2007-02-15d1t01.flac:79e0787f656714d2c3197778cd7da0a5
outformation2007-02-15d1t02.flac:3f602b48d8a689d6e0335d49968a4297
outformation2007-02-15d1t03.flac:c680fc171a6efca2e1b4521ffd3ea2aa
outformation2007-02-15d1t04.flac:224876f02f6a07dc65bdb7f757eeed09
outformation2007-02-15d1t05.flac:73316b16be855953bcd44a4d9557fcbb
outformation2007-02-15d1t06.flac:f8531cdecc6f45e02d0717c85d8b4ed9
outformation2007-02-15d1t07.flac:1a847e8cae95220485c1f10c93f8a09d
outformation2007-02-15d1t08.flac:15981dab451d5ab2bdf4d7e68295f399
outformation2007-02-15d2t01.flac:0dfdb2c660e34429ad8cd0da3be60d45
outformation2007-02-15d2t02.flac:7f57f369ecc9c37339482d3f6cfc76a3
outformation2007-02-15d2t03.flac:95abe615c339346744e5240f72a98ae6
outformation2007-02-15d2t04.flac:9978d610030d2f4af2ed4629432c3a5d
outformation2007-02-15d2t05.flac:0f8179fb199cb81c419b463f8697540a
outformation2007-02-15d2t06.flac:8129c1d12bcdff5f4e91f55c1f2b5ca0
outformation2007-02-15d2t07.flac:7ef5a75a3b7b03271e7adc0ec66318f7
outformation2007-02-15d2t08.flac:0e8473116d2aad65a8467724be3a5845
outformation2007-02-15d2t09.flac:2baf56372d66f1ff1cb295a91ec7a538
outformation2007-02-15d2t10.flac:2b8b34d55237d328ff72718f991c3757
outformation2007-02-15d2t11.flac:72be4fc51b600a93054deadf71be21e7
outformation2007-02-15d3t01.flac:91ca27f72c9c055102ea32a348572b5e
outformation2007-02-15d3t02.flac:49990f588dfc2b45d31453bb181a2b7c
outformation2007-02-15d3t03.flac:805e5e8497f4920ef0c142db8ba38669
outformation2007-02-15d3t04.flac:9f0e880b7571bed01a4b8cd969d7d1c8
outformation2007-02-15d3t05.flac:dcf484a73bfcb5f67d5b75e2fd1e32a9
outformation2007-02-14d3t03.flac:a41591e454bd1dfedfcd6a07d677b893
outformation2007-02-14d3t04.flac:5e8b0556a3a5315b88dc5f49b31c51fe

shntool
    length     expanded size   cdr  WAVE problems filename
     6:15.07       66166508    ---   --   ---xx   outformation2007-02-15d1t01.flac
     4:46.54       50577452    ---   --   ---xx   outformation2007-02-15d1t02.flac
     7:05.11       74995916    ---   --   ---xx   outformation2007-02-15d1t03.flac
    10:34.22      111889388    ---   --   ---xx   outformation2007-02-15d1t04.flac
     4:06.40       43488524    ---   --   ---xx   outformation2007-02-15d1t05.flac
     2:14.27       23701148    ---   --   ---xx   outformation2007-02-15d1t06.flac
     5:27.44       57786332    ---   --   ---xx   outformation2007-02-15d1t07.flac
     7:57.26       84203996    ---   --   ---xx   outformation2007-02-15d1t08.flac
     3:49.02       40400348    ---   --   ---xx   outformation2007-02-15d2t01.flac
     3:06.51       32930396    ---   --   ---xx   outformation2007-02-15d2t02.flac
     8:22.10       88576364    ---   --   ---xx   outformation2007-02-15d2t03.flac
     8:31.56       90272156    ---   --   ---xx   outformation2007-02-15d2t04.flac
    14:53.64      157675772    ---   --   ---xx   outformation2007-02-15d2t05.flac
     6:20.32       67107308    ---   --   ---xx   outformation2007-02-15d2t06.flac
     8:15.15       87353324    ---   --   ---xx   outformation2007-02-15d2t07.flac
     6:58.53       73859900    ---   --   ---xx   outformation2007-02-15d2t08.flac
     4:28.31       47348156    ---   --   ---xx   outformation2007-02-15d2t09.flac
     5:53.48       62382140    ---   --   ---xx   outformation2007-02-15d2t10.flac
     4:49.11       51005516    ---   --   ---xx   outformation2007-02-15d2t11.flac
     1:17.52       13705148    ---   --   ---xx   outformation2007-02-15d3t01.flac
     7:55.02       83794748    ---   --   ---xx   outformation2007-02-15d3t02.flac
     3:07.70       33151484    ---   --   ---xx   outformation2007-02-15d3t03.flac
     4:00.51       42455996    ---   --   ---xx   outformation2007-02-15d3t04.flac
     4:22.05       46228604    ---   --   ---xx   outformation2007-02-15d3t05.flac
   144:39.34     1531056624 B                     (totals for 24 files, 0.5895 overall compression ratio)
Show Checksums
ffp
outformation2007-02-15d1t01.flac:79e0787f656714d2c3197778cd7da0a5
outformation2007-02-15d1t02.flac:3f602b48d8a689d6e0335d49968a4297
outformation2007-02-15d1t03.flac:c680fc171a6efca2e1b4521ffd3ea2aa
outformation2007-02-15d1t04.flac:224876f02f6a07dc65bdb7f757eeed09
outformation2007-02-15d1t05.flac:73316b16be855953bcd44a4d9557fcbb
outformation2007-02-15d1t06.flac:f8531cdecc6f45e02d0717c85d8b4ed9
outformation2007-02-15d1t07.flac:1a847e8cae95220485c1f10c93f8a09d
outformation2007-02-15d1t08.flac:15981dab451d5ab2bdf4d7e68295f399
outformation2007-02-15d2t01.flac:0dfdb2c660e34429ad8cd0da3be60d45
outformation2007-02-15d2t02.flac:7f57f369ecc9c37339482d3f6cfc76a3
outformation2007-02-15d2t03.flac:95abe615c339346744e5240f72a98ae6
outformation2007-02-15d2t04.flac:9978d610030d2f4af2ed4629432c3a5d
outformation2007-02-15d2t05.flac:0f8179fb199cb81c419b463f8697540a
outformation2007-02-15d2t06.flac:8129c1d12bcdff5f4e91f55c1f2b5ca0
outformation2007-02-15d2t07.flac:7ef5a75a3b7b03271e7adc0ec66318f7
outformation2007-02-15d2t08.flac:0e8473116d2aad65a8467724be3a5845
outformation2007-02-15d2t09.flac:2baf56372d66f1ff1cb295a91ec7a538
outformation2007-02-15d2t10.flac:2b8b34d55237d328ff72718f991c3757
outformation2007-02-15d2t11.flac:72be4fc51b600a93054deadf71be21e7
outformation2007-02-15d3t01.flac:91ca27f72c9c055102ea32a348572b5e
outformation2007-02-15d3t02.flac:49990f588dfc2b45d31453bb181a2b7c
outformation2007-02-15d3t03.flac:805e5e8497f4920ef0c142db8ba38669
outformation2007-02-15d3t04.flac:9f0e880b7571bed01a4b8cd969d7d1c8
outformation2007-02-15d3t05.flac:dcf484a73bfcb5f67d5b75e2fd1e32a9
outformation2007-02-14d3t03.flac:a41591e454bd1dfedfcd6a07d677b893
outformation2007-02-14d3t04.flac:5e8b0556a3a5315b88dc5f49b31c51fe

Comments
Add Comment
Other Sources (comments)
(FOB) Neumann... (0) (FOB) Peluso CEMC-6/CK4 >... (0) AKG 461> BMp2 + UA-5 > NJB3... (0)
Date User Comment