Browse Collections Artists Sources   Search Dates

Add Show    List Management    Help


Outformation 02/23/07
Music Farm, Charleston, SC
Comments Add Comment    Source Collectors    Add to Collection    Add to Want List    History
Source # 84113 Other Sources
Entered by Todd
Checksums ffp
Disc Counts 1 / 1
Media Size
Date Circulated
Date Added
02/24/2007
04/11/2007
Source Summary SBD + (Rail) Schoeps MK41v/KC5/M222/NT222 + Neumann u89i > v3 > SD744t > WaveLab > CDWav > Flac(6)
Taped and transfered by Charles Fox 
  Archive
Source Information - Download Text | Download Zip
Outformation
Music Farm
Charleston SC
2007-02-23

source: Schoeps mk41v(dina)~>kc5~>m222~>nt222 + SBD(soundcraft)~>744t +{Clink}Neumann u89i(hyper)~>v3~>744t @ (24/48)
location: roc @ rail
dsp: 744t~>wavelab5~>cdwave~>wavelab5~>flac(6)
recorded, transferred & seeded: charles fox (thanks to brian austin for u89i source)

set 0:
01 Intro
02 edgewater
03 tennessee before daylight
04 carnac
05 later
06 travelers rest
07 toys lament
08 center stage
09 into my arms
10 cctp~>
11 long hard ride

-opened for Umphree's McGee
-setlist compliments of www.setformation.com

ffp
outformation2007-02-23t01.flac:30f9477c8fa4708b9c3d2ea746c1baa1
outformation2007-02-23t02.flac:a44b2f9961645c8d68bfcaed3e6e6e78
outformation2007-02-23t03.flac:1a6c9450bc1d602c8566478483acc93b
outformation2007-02-23t04.flac:d2971b6b30ec50d50f2f84af64cb5300
outformation2007-02-23t05.flac:bca85819bfbb8bcc3fc62b56f90959fb
outformation2007-02-23t06.flac:befec0385deb0416c8237f8b23ea51c7
outformation2007-02-23t07.flac:516e638a4d603a6702a58ae34980cfe9
outformation2007-02-23t08.flac:c9b47618ee90e9458026b08063f898ab
outformation2007-02-23t09.flac:dda960e11452bc654c402f6f25d09078
outformation2007-02-23t10.flac:5d69284a2e8066db6daac346352d1594
outformation2007-02-23t11.flac:7d20c4859ba59c641a2e91bbae5736c8

shntool
    length     expanded size   cdr  WAVE problems filename
     1:03.51       11233196    ---   --   ---xx   outformation2007-02-23t01.flac
     4:32.60       48121964    ---   --   ---xx   outformation2007-02-23t02.flac
     7:13.32       76456508    ---   --   ---xx   outformation2007-02-23t03.flac
     8:44.58       92570060    ---   --   ---xx   outformation2007-02-23t04.flac
     7:11.66       76183676    ---   --   ---xx   outformation2007-02-23t05.flac
     8:18.44       87950732    ---   --   ---xx   outformation2007-02-23t06.flac
     8:44.67       92591228    ---   --   ---xx   outformation2007-02-23t07.flac
     8:51.54       93795452    ---   --   ---xx   outformation2007-02-23t08.flac
     7:33.71       80076236    ---   --   ---xx   outformation2007-02-23t09.flac
     5:29.10       58059164    ---   --   ---xx   outformation2007-02-23t10.flac
     4:40.48       49504940    ---   --   ---xx   outformation2007-02-23t11.flac
    72:25.36      766543156 B (totals for 11 files, 0.5681 overall compression ratio)

Show Checksums
ffp
outformation2007-02-23t01.flac:30f9477c8fa4708b9c3d2ea746c1baa1
outformation2007-02-23t02.flac:a44b2f9961645c8d68bfcaed3e6e6e78
outformation2007-02-23t03.flac:1a6c9450bc1d602c8566478483acc93b
outformation2007-02-23t04.flac:d2971b6b30ec50d50f2f84af64cb5300
outformation2007-02-23t05.flac:bca85819bfbb8bcc3fc62b56f90959fb
outformation2007-02-23t06.flac:befec0385deb0416c8237f8b23ea51c7
outformation2007-02-23t07.flac:516e638a4d603a6702a58ae34980cfe9
outformation2007-02-23t08.flac:c9b47618ee90e9458026b08063f898ab
outformation2007-02-23t09.flac:dda960e11452bc654c402f6f25d09078
outformation2007-02-23t10.flac:5d69284a2e8066db6daac346352d1594
outformation2007-02-23t11.flac:7d20c4859ba59c641a2e91bbae5736c8

Comments
Add Comment
Date User Comment