Browse Collections Artists Sources   Search Dates

Add Show    List Management    Help


Outformation 02/28/07
The Bottleneck, Lawrence, KS
Comments Add Comment    Source Collectors    Add to Collection    Add to Want List    History
Source # 84115 Other Sources
Entered by Todd
Checksums ffp
Disc Counts 2 / 2
Media Size
Date Circulated
Date Added
03/01/2007
04/11/2007
Source Summary SBD + DPA 4011 > Lunatec v2 > SD744t > Audacity > CDWav > WaveLab > Flac
Taped by Steve Propp, Transfered by Dustin Hassenstab 
  Archive
Source Information - Download Text | Download Zip
Outformation
Wednesday
02/28/07
The Bottleneck
Lawrence, KS

Source: DPA4011's->Lunatec V2 (analog)->Sound Devices 744t + SBD->Sound Devices 744t (24/48)
Location: DIN/Slightly LoB
Transfer: Sound Devices 744t->.wav->Audacity->CDWave->WaveLab 5.0 (24/48->16/44.1)->.flac16
Taped by Steve Propp (thanks to Steve for providing the original files)
Mixed/Tracked/Seeded by Dustin Hassenstab (Hoss)


Disc 1
Set 1:
01. [02:29] Lead-up to set 1
02. [03:57] Game On ->
03. [05:31] Edgewater
04. [03:42] Anymore
05. [10:36] 24 Hours At A Time
06. [11:59] Center Stage ->
07. [09:02] 90
08. [08:59] Carnac
09. [07:06] Into My Arms
Set 2:
10. [01:29] Lead-up to set 2
11. [03:06] A of D

Disc 2
01. [05:17] Can't Change The Past
02. [06:40] Later
03. [03:59] SG
04. [09:48] Traveler's Rest
05. [13:55] Stone In My Shoe
06. [04:32] Chicken Pickin' ->
07. [10:15] Long Lonely Road
08. [07:56] West L.A. Fadeaway
09. [07:06] Long Hard Ride
Encore:
10. [09:14] 'Bout My Money

outformation2007-02-28.matrix.d1t01.flac:89d8a7847847cd4d7e6b87541e9d3284
outformation2007-02-28.matrix.d1t02.flac:c39380df3498f41daf01f85915f97794
outformation2007-02-28.matrix.d1t03.flac:bd8e5cc3b9e5ee738477229d130ca146
outformation2007-02-28.matrix.d1t04.flac:d764add3324a8041cde069910316c516
outformation2007-02-28.matrix.d1t05.flac:084d012b0558e2133784b9c357296ffe
outformation2007-02-28.matrix.d1t06.flac:7124c7198aa62db15ed1537438251f44
outformation2007-02-28.matrix.d1t07.flac:ba97fa164d26091c6ec61164d53306cb
outformation2007-02-28.matrix.d1t08.flac:4d8484b7384162aeb31fac1f1329fd54
outformation2007-02-28.matrix.d1t09.flac:0f291e2d5e93951ddbc3b0962dea39cc
outformation2007-02-28.matrix.d1t10.flac:582dacb9d837a1c2a6f2f6e73248ca07
outformation2007-02-28.matrix.d1t11.flac:376246ce2bd630daada7f7848b3bc56b
outformation2007-02-28.matrix.d2t01.flac:c690bd007705eccb72c4ebd067c59159
outformation2007-02-28.matrix.d2t02.flac:9ba77b13b4be446e44e2ed0d89171464
outformation2007-02-28.matrix.d2t03.flac:78ce950c29a0c6fbd426d719872dc0f8
outformation2007-02-28.matrix.d2t04.flac:f8ba732d0c19c93c9f2f410bfb54cbb8
outformation2007-02-28.matrix.d2t05.flac:6738982aaed06905ab0ec81fd50fc1be
outformation2007-02-28.matrix.d2t06.flac:d51e2f84c2cfaf7645442ed7f512acfa
outformation2007-02-28.matrix.d2t07.flac:88022b3a6c5268c3719e6404cc287fc4
outformation2007-02-28.matrix.d2t08.flac:0309dfc8f049b7f0a92cf72bbd75f8f3
outformation2007-02-28.matrix.d2t09.flac:2c5dd7a50b4d6caf31c5ee576175a6c4
outformation2007-02-28.matrix.d2t10.flac:d169841516f6e54e3477e32743d99f4a

    length     expanded size   cdr  WAVE problems filename
     2:29.19       26328332    ---   --   ---xx   outformation2007-02-28.matrix.d1t01.flac
     3:57.03       41813900    ---   --   ---xx   outformation2007-02-28.matrix.d1t02.flac
     5:31.23       58442540    ---   --   ---xx   outformation2007-02-28.matrix.d1t03.flac
     3:42.56       39292556    ---   --   ---xx   outformation2007-02-28.matrix.d1t04.flac
    10:36.41      112286876    ---   --   ---xx   outformation2007-02-28.matrix.d1t05.flac
    11:59.21      126881036    ---   --   ---xx   outformation2007-02-28.matrix.d1t06.flac
     9:02.30       95679404    ---   --   ---xx   outformation2007-02-28.matrix.d1t07.flac
     8:59.38       95169020    ---   --   ---xx   outformation2007-02-28.matrix.d1t08.flac
     7:06.69       75308732    ---   --   ---xx   outformation2007-02-28.matrix.d1t09.flac
     1:29.43       15800780    ---   --   ---xx   outformation2007-02-28.matrix.d1t10.flac
     3:06.06       32824556    ---   --   ---xx   outformation2007-02-28.matrix.d1t11.flac
     5:17.31       55991756    ---   --   ---xx   outformation2007-02-28.matrix.d2t01.flac
     6:40.38       70649420    ---   --   ---xx   outformation2007-02-28.matrix.d2t02.flac
     3:59.20       42206684    ---   --   ---xx   outformation2007-02-28.matrix.d2t03.flac
     9:48.14      103756172    ---   --   ---xx   outformation2007-02-28.matrix.d2t04.flac
    13:55.61      147437516    ---   --   ---xx   outformation2007-02-28.matrix.d2t05.flac
     4:32.39       48072572    ---   --   ---xx   outformation2007-02-28.matrix.d2t06.flac
    10:15.31      108558956    ---   --   ---xx   outformation2007-02-28.matrix.d2t07.flac
     7:56.51       84086396    ---   --   ---xx   outformation2007-02-28.matrix.d2t08.flac
     7:06.52       75268748    ---   --   ---xx   outformation2007-02-28.matrix.d2t09.flac
     9:14.65       97878524    ---   --   ---xx   outformation2007-02-28.matrix.d2t10.flac
   146:48.01     1553734476 B                     (totals for 21 files, 0.4769 overall compression ratio)
734476 B
Show Checksums
ffp
outformation2007-02-28.matrix.d1t01.flac:89d8a7847847cd4d7e6b87541e9d3284
outformation2007-02-28.matrix.d1t02.flac:c39380df3498f41daf01f85915f97794
outformation2007-02-28.matrix.d1t03.flac:bd8e5cc3b9e5ee738477229d130ca146
outformation2007-02-28.matrix.d1t04.flac:d764add3324a8041cde069910316c516
outformation2007-02-28.matrix.d1t05.flac:084d012b0558e2133784b9c357296ffe
outformation2007-02-28.matrix.d1t06.flac:7124c7198aa62db15ed1537438251f44
outformation2007-02-28.matrix.d1t07.flac:ba97fa164d26091c6ec61164d53306cb
outformation2007-02-28.matrix.d1t08.flac:4d8484b7384162aeb31fac1f1329fd54
outformation2007-02-28.matrix.d1t09.flac:0f291e2d5e93951ddbc3b0962dea39cc
outformation2007-02-28.matrix.d1t10.flac:582dacb9d837a1c2a6f2f6e73248ca07
outformation2007-02-28.matrix.d1t11.flac:376246ce2bd630daada7f7848b3bc56b
outformation2007-02-28.matrix.d2t01.flac:c690bd007705eccb72c4ebd067c59159
outformation2007-02-28.matrix.d2t02.flac:9ba77b13b4be446e44e2ed0d89171464
outformation2007-02-28.matrix.d2t03.flac:78ce950c29a0c6fbd426d719872dc0f8
outformation2007-02-28.matrix.d2t04.flac:f8ba732d0c19c93c9f2f410bfb54cbb8
outformation2007-02-28.matrix.d2t05.flac:6738982aaed06905ab0ec81fd50fc1be
outformation2007-02-28.matrix.d2t06.flac:d51e2f84c2cfaf7645442ed7f512acfa
outformation2007-02-28.matrix.d2t07.flac:88022b3a6c5268c3719e6404cc287fc4
outformation2007-02-28.matrix.d2t08.flac:0309dfc8f049b7f0a92cf72bbd75f8f3
outformation2007-02-28.matrix.d2t09.flac:2c5dd7a50b4d6caf31c5ee576175a6c4
outformation2007-02-28.matrix.d2t10.flac:d169841516f6e54e3477e32743d99f4a

Comments
Add Comment
Date User Comment