Browse Collections Artists Sources   Search Dates

Add Show    List Management    Help


Outformation 03/01/07
Fox Theater, Boulder, CO
Comments Add Comment    Source Collectors    Add to Collection    Add to Want List    History
Source # 84116 Other Sources
Entered by Todd
Checksums ffp
Disc Counts 2 / 2
Media Size
Date Circulated
Date Added
03/02/2007
04/11/2007
Source Summary (FOB) Schoeps MK41v/KC5/M222NT222 + (FOB) Schoeps MK4v/MK8 > KCY > VMS5U > SD744t > WaveLab > CDWav > Flac
Taped and transfered by Charles Fox 
  Archive
Source Information - Download Text | Download Zip
Outformation
Fox Theater
Boulder, CO
2007-03-01

source: Schoeps mk41v(dina)~>kc5~>m222~>nt222 + mk4v/mk8~>kcy~>vms5u~>744t (24/48)
location: fob/dfc
transfer: 744t~>wavelab5~>cdwave~>wavelab5~>flac(6)
recorded & seeded: charles fox

Set 0/disc 1
01 Edgewater
02 Can't Change the Past
03 Later
04 Solid Country Gold
05 Toys Lament
06 Bout' my $~>
07 Drums~>
08 Jam~>
09 Bout' my $
10 SG
11 Travelers Rest

set 0/disc 2
01 Stone in my Shoe
02 B of D
03 90
04 Center Stage
05 Sweet Louisiana~>
06 Titles~>
07 Camper~>
08 Titles

E:
09 Jam~>
10 Valley Blue~>
11 Winds
12 Can't You See

ffp
out2007-03-01d1t01.flac:b80d5eac967cb80e616fdb64610a1992
out2007-03-01d1t02.flac:08110f8b16934efb80ecfe7adde9ccc0
out2007-03-01d1t03.flac:cb4c9eab2f9d5451c640d88f349294a9
out2007-03-01d1t04.flac:36b5e23b2bf8c04b4f4a060874416ed1
out2007-03-01d1t05.flac:1c703b73cced8ae7b9ebcdb63ed48438
out2007-03-01d1t06.flac:330b2ff0cfb40f2c571028ef015911b6
out2007-03-01d1t07.flac:c77646c7c14e5a492919dc3d77806763
out2007-03-01d1t08.flac:f3e27f3cd0931874d0b9fd8179da6c8a
out2007-03-01d1t09.flac:403aaaaa5ea67cbd8b08c5d334f163cc
out2007-03-01d1t10.flac:5d5534863a3dbed6060f274ceca2ff47
out2007-03-01d1t11.flac:708f17018d5b5dedb2c517dc2a71a980
out2007-03-01d2t01.flac:2e8e6a281efde3e4f92c7448477bfee7
out2007-03-01d2t02.flac:8908041125bf99e31d411509b2441b86
out2007-03-01d2t03.flac:8a473e814fd64912731652396fdd495b
out2007-03-01d2t04.flac:505b4e9990746186de612a6eb3d14b7e
out2007-03-01d2t05.flac:22eb06e6a6faff4e991608da769e33b8
out2007-03-01d2t06.flac:b2b347683613e1ab32df11fbc824afff
out2007-03-01d2t07.flac:aca7fe732b8bbc0ceb8d11cd278e43de
out2007-03-01d2t08.flac:7c8eaa8a28a7af05cc2e3f162c9e78ad
out2007-03-01d2t09.flac:015e2506a9e014276b5b83980c65f56e
out2007-03-01d2t10.flac:459c4e62beb132bcda62237524566d4e
out2007-03-01d2t11.flac:b1ca6df322981f7f9231222be4e944b8
out2007-03-01d2t12.flac:5f61c15a9ef5901d7b51dcade9d88c24

shntool
    length     expanded size   cdr  WAVE problems filename
     5:12.18       55079180    ---   --   ---xx   out2007-03-01d1t01.flac
    15:39.39      165731372    ---   --   ---xx   out2007-03-01d1t02.flac
     6:45.20       71489084    ---   --   ---xx   out2007-03-01d1t03.flac
    11:20.53      120076700    ---   --   ---xx   out2007-03-01d1t04.flac
     7:19.70       77604284    ---   --   ---xx   out2007-03-01d1t05.flac
     8:17.11       87696716    ---   --   ---xx   out2007-03-01d1t06.flac
     3:03.55       32410604    ---   --   ---xx   out2007-03-01d1t07.flac
     3:52.64       41075372    ---   --   ---xx   out2007-03-01d1t08.flac
     1:33.00       16405244    ---   --   ---xx   out2007-03-01d1t09.flac
     3:56.15       41665724    ---   --   ---xx   out2007-03-01d1t10.flac
     7:58.10       84342764    ---   --   ---xx   out2007-03-01d1t11.flac
    14:12.71      150459836    ---   --   ---xx   out2007-03-01d2t01.flac
     3:34.23       37803740    ---   --   ---xx   out2007-03-01d2t02.flac
     8:56.03       94557500    ---   --   ---xx   out2007-03-01d2t03.flac
    13:15.14      140270972    ---   --   ---xx   out2007-03-01d2t04.flac
     4:17.52       45457148    ---   --   ---xx   out2007-03-01d2t05.flac
     3:40.49       38923292    ---   --   ---xx   out2007-03-01d2t06.flac
     2:06.28       22292300    ---   --   ---xx   out2007-03-01d2t07.flac
     3:57.72       41976188    ---   --   ---xx   out2007-03-01d2t08.flac
     2:53.14       30550172    ---   --   ---xx   out2007-03-01d2t09.flac
     2:45.25       29164844    ---   --   ---xx   out2007-03-01d2t10.flac
     7:51.16       83122076    ---   --   ---xx   out2007-03-01d2t11.flac
    11:28.06      121377356    ---   --   ---xx   out2007-03-01d2t12.flac
   153:57.53     1629532468 B                     (totals for 23 files, 0.5611 overall compression ratio)
Show Checksums
ffp
out2007-03-01d1t01.flac:b80d5eac967cb80e616fdb64610a1992
out2007-03-01d1t02.flac:08110f8b16934efb80ecfe7adde9ccc0
out2007-03-01d1t03.flac:cb4c9eab2f9d5451c640d88f349294a9
out2007-03-01d1t04.flac:36b5e23b2bf8c04b4f4a060874416ed1
out2007-03-01d1t05.flac:1c703b73cced8ae7b9ebcdb63ed48438
out2007-03-01d1t06.flac:330b2ff0cfb40f2c571028ef015911b6
out2007-03-01d1t07.flac:c77646c7c14e5a492919dc3d77806763
out2007-03-01d1t08.flac:f3e27f3cd0931874d0b9fd8179da6c8a
out2007-03-01d1t09.flac:403aaaaa5ea67cbd8b08c5d334f163cc
out2007-03-01d1t10.flac:5d5534863a3dbed6060f274ceca2ff47
out2007-03-01d1t11.flac:708f17018d5b5dedb2c517dc2a71a980
out2007-03-01d2t01.flac:2e8e6a281efde3e4f92c7448477bfee7
out2007-03-01d2t02.flac:8908041125bf99e31d411509b2441b86
out2007-03-01d2t03.flac:8a473e814fd64912731652396fdd495b
out2007-03-01d2t04.flac:505b4e9990746186de612a6eb3d14b7e
out2007-03-01d2t05.flac:22eb06e6a6faff4e991608da769e33b8
out2007-03-01d2t06.flac:b2b347683613e1ab32df11fbc824afff
out2007-03-01d2t07.flac:aca7fe732b8bbc0ceb8d11cd278e43de
out2007-03-01d2t08.flac:7c8eaa8a28a7af05cc2e3f162c9e78ad
out2007-03-01d2t09.flac:015e2506a9e014276b5b83980c65f56e
out2007-03-01d2t10.flac:459c4e62beb132bcda62237524566d4e
out2007-03-01d2t11.flac:b1ca6df322981f7f9231222be4e944b8
out2007-03-01d2t12.flac:5f61c15a9ef5901d7b51dcade9d88c24

Comments
Add Comment
Date User Comment