Browse Collections Artists Sources   Search Dates

Add Show    List Management    Help


Outformation 03/02/07
Gothic Theatre, Englewood, CO
Comments Add Comment    Source Collectors    Add to Collection    Add to Want List    History
Source # 84117 Other Sources
Entered by Todd
Checksums ffp
Disc Counts 2 / 2
Media Size
Date Circulated
Date Added
03/03/2007
04/11/2007
Source Summary Schoeps MK41v/KC5/M222/NT222 > SD744t > WaveLab > CDWav > Flac(6)
Taped and transfered by Charles Fox 
  Archive
Source Information - Download Text | Download Zip
Outformation
Gothic Theater
Englewood CO
2007-03-02

source: Schoeps mk41v(dina)~>kc5~>m222~>nt222~>744t @ (24/48)
location: clamped to balcony @ sbd/roc
dsp: 744t~>wavelab5~>cdwave~>wavelab5~>flac(6)
recorded & seeded: charles fox

set 1 disc 1
01 Titles
02 Unwound
03 Can't Change the Past
04 Winds
05 Carnac
06 Nowhere
07 West LA Fadeaway~>
08 Chicken Pickin~>
09 Long Lonely Rd~>
10 Valley Blue

set 2 disc 2
01 Lonesome Or'nry & Mean
02 Edgewater
03 Toys Lament
04 Blue Ridge Mtn Sky*
05 Bout' my $*~>
06 Drums
07 Bout' my $*
08 You Got Yours
09 SG
10 Into my Arms
E:
11 Traveler's Rest
12 90
13 Long Hard Ride
14 Sweet Louisiana

ffp
out2007-03-02d1t01.flac:779442b67bfd9c946eb28de00a34c322
out2007-03-02d1t02.flac:62e30c82547f5c5fee44ea124364e423
out2007-03-02d1t03.flac:b3ff8b688bfd8d4b5a8fa5145fa36119
out2007-03-02d1t04.flac:70b68cb3f5a005506dfe04917482bba4
out2007-03-02d1t05.flac:aff011c2fa8a96a8ba5982d7bf0904e6
out2007-03-02d1t06.flac:c2fa97a0d4ad72eeb36575a28796e35f
out2007-03-02d1t07.flac:fa2a65d96e7728cd07267791bc1b385f
out2007-03-02d1t08.flac:d74eeebc9b66f844e864b894a90ebdb4
out2007-03-02d1t09.flac:1f2d4ba7de458e2840370f2d52d72fec
out2007-03-02d1t10.flac:afe9d6a4cdb8fa8cf318c95c5756056c
out2007-03-02d2t01.flac:2014ce576e308740cbdf2f9e4cd68883
out2007-03-02d2t02.flac:01d160a460c51bc8b25ebc23fa370cfc
out2007-03-02d2t03.flac:7c04d1d1ec09f7d07fbf97d1b0cf95a5
out2007-03-02d2t04.flac:4506bccef3b6eea16f99c00ca3764392
out2007-03-02d2t05.flac:a2d66e41d6a8aaa3959cb270376b293d
out2007-03-02d2t06.flac:bef2111021ecd12358b2013aa768332e
out2007-03-02d2t07.flac:52db08dde25a2a4536b19d34ed067dde
out2007-03-02d2t08.flac:e0786b0f19d8c2078f34855bd8a04be3
out2007-03-02d2t09.flac:d7c16acf51b214edfe47e08b7611ad50
out2007-03-02d2t10.flac:fc14ca9f520e1a369c2fe8049b4b2f0b
out2007-03-02d2t11.flac:30afece3d3e6a93a53302bdd1248affc
out2007-03-02d2t12.flac:cc7c44cb294551d2811216dd60ac6115
out2007-03-02d2t13.flac:d4694b3999c9542eb3aff08f56f4a7d1
out2007-03-02d2t14.flac:194ec09f4a0782d264674abed08bd81b

shntool
    length     expanded size   cdr  WAVE problems filename
     6:04.27       64273148    ---   --   ---xx   out2007-03-02d1t01.flac
     9:21.57       99094508    ---   --   ---xx   out2007-03-02d1t02.flac
     5:57.16       63012476    ---   --   ---xx   out2007-03-02d1t03.flac
     6:53.09       72874412    ---   --   ---xx   out2007-03-02d1t04.flac
    10:18.65      109168124    ---   --   ---xx   out2007-03-02d1t05.flac
     3:34.61       37893116    ---   --   ---xx   out2007-03-02d1t06.flac
     7:31.43       79657580    ---   --   ---xx   out2007-03-02d1t07.flac
     4:16.05       45170204    ---   --   ---xx   out2007-03-02d1t08.flac
    10:03.48      106482140    ---   --   ---xx   out2007-03-02d1t09.flac
     3:08.38       33252620    ---   --   ---xx   out2007-03-02d1t10.flac
     4:41.40       49662524    ---   --   ---xx   out2007-03-02d2t01.flac
     4:54.69       52023932    ---   --   ---xx   out2007-03-02d2t02.flac
     9:00.34       95336012    ---   --   ---xx   out2007-03-02d2t03.flac
    10:48.56      114438956    ---   --   ---xx   out2007-03-02d2t04.flac
     8:47.47       93073388    ---   --   ---xx   out2007-03-02d2t05.flac
     6:19.12       66883868    ---   --   ---xx   out2007-03-02d2t06.flac
     2:09.59       22894412    ---   --   ---xx   out2007-03-02d2t07.flac
    10:00.25      105898844    ---   --   ---xx   out2007-03-02d2t08.flac
     3:53.16       41138876    ---   --   ---xx   out2007-03-02d2t09.flac
    11:10.37      118275068    ---   --   ---xx   out2007-03-02d2t10.flac
     8:38.72       91544588    ---   --   ---xx   out2007-03-02d2t11.flac
    10:26.54      110553452    ---   --   ---xx   out2007-03-02d2t12.flac
     5:24.22       57205388    ---   --   ---xx   out2007-03-02d2t13.flac
     5:16.72       55911788    ---   --   ---xx   out2007-03-02d2t14.flac
   168:43.09     1785719424 B                     (totals for 24 files, 0.5866 overall compression ratio)
Show Checksums
ffp
out2007-03-02d1t01.flac:779442b67bfd9c946eb28de00a34c322
out2007-03-02d1t02.flac:62e30c82547f5c5fee44ea124364e423
out2007-03-02d1t03.flac:b3ff8b688bfd8d4b5a8fa5145fa36119
out2007-03-02d1t04.flac:70b68cb3f5a005506dfe04917482bba4
out2007-03-02d1t05.flac:aff011c2fa8a96a8ba5982d7bf0904e6
out2007-03-02d1t06.flac:c2fa97a0d4ad72eeb36575a28796e35f
out2007-03-02d1t07.flac:fa2a65d96e7728cd07267791bc1b385f
out2007-03-02d1t08.flac:d74eeebc9b66f844e864b894a90ebdb4
out2007-03-02d1t09.flac:1f2d4ba7de458e2840370f2d52d72fec
out2007-03-02d1t10.flac:afe9d6a4cdb8fa8cf318c95c5756056c
out2007-03-02d2t01.flac:2014ce576e308740cbdf2f9e4cd68883
out2007-03-02d2t02.flac:01d160a460c51bc8b25ebc23fa370cfc
out2007-03-02d2t03.flac:7c04d1d1ec09f7d07fbf97d1b0cf95a5
out2007-03-02d2t04.flac:4506bccef3b6eea16f99c00ca3764392
out2007-03-02d2t05.flac:a2d66e41d6a8aaa3959cb270376b293d
out2007-03-02d2t06.flac:bef2111021ecd12358b2013aa768332e
out2007-03-02d2t07.flac:52db08dde25a2a4536b19d34ed067dde
out2007-03-02d2t08.flac:e0786b0f19d8c2078f34855bd8a04be3
out2007-03-02d2t09.flac:d7c16acf51b214edfe47e08b7611ad50
out2007-03-02d2t10.flac:fc14ca9f520e1a369c2fe8049b4b2f0b
out2007-03-02d2t11.flac:30afece3d3e6a93a53302bdd1248affc
out2007-03-02d2t12.flac:cc7c44cb294551d2811216dd60ac6115
out2007-03-02d2t13.flac:d4694b3999c9542eb3aff08f56f4a7d1
out2007-03-02d2t14.flac:194ec09f4a0782d264674abed08bd81b

Comments
Add Comment
Other Sources (comments)
(FOS) MBHO... (0)
Date User Comment