Browse Collections Artists Sources   Search Dates

Add Show    List Management    Help


Outformation 03/02/07
Gothic Theatre, Englewood, CO
Comments Add Comment    Source Collectors    Add to Collection    Add to Want List    History
Source # 84118 Other Sources
Entered by Todd
Checksums ffp
Disc Counts 2 / 3
Media Size
Date Circulated
Date Added
03/03/2007
04/11/2007
Source Summary (FOS) MBHO 603a/actives/KA200 > V3(24/48) > MT2496 > USB > Sound Forge > WaveLab > CDWav > Flac(8)
Taped and transfered by Eric Foelske 
  Archive
Source Information - Download Text | Download Zip
Outformation

Friday, March 2, 2007
Gothic Theatre
Englewood, CO

Disc 1/Set I: (67:16)
01. Titles of Movies Will Not Appear on Bill
02. Unwound
03. Can't Change the Past
04. Winds
05. Carnac
06. Anymore
07. West L.A. Fadeaway
08. Chicken Pickin' >
09. Long Lonely Road
10. Valley Blue

Disc 2: (56:11)
Set II...
01. Happy Child > Lonesome Orn'ry & Mean
02. Edgewater
03. Toy's Lament
04. Blue Ridge Mountain Sky *
05. 'Bout My Money > *
06. Drums >
07. Drums & Keys
08. 'Bout My Money *
09. You Got Yours

Disc 3: (45:20)
...Set II
01. SG
02. Into My Arms
Encore
03. Traveler's Rest
04. 90 > Jam >
05. Long Hard Ride
06. Sweet Louisiana

* with Adam Kilgus(Breaking & Entering) on guitar.  Breaking & Entering opened.

Notes: 'Bleachy Calls The Bar' sample during ''Bout My Money' - 'Nemesis' sample after 'Drums' - 'Nightlife' tease before 'Traveler's Rest'

www.foryouroutformation.com
Thanks to www.setformation.com for the setlist!

Source: MBHO 603a/actives/KA200 > V3(24/48) > MT2496 (Front Rail/DFC)
Transfer: MT2496 > USB > SoundForge(EQ/Norm/Fades) > Wavelab(Dither/Resample UV22HR) > CDWave > FLAC16(8)
Taped & Transfered by: Eric Foelske (taperwookie AT gmail.com)
---------------------------------------------------------
FLAC Fingerprint:
---------------------------------------------------------
outf2007-03-02d1t01.flac:ac7fcfaa597bd4b847530b5a1520c8fd
outf2007-03-02d1t02.flac:1ca341df5f02d0bf4ab6a65c713ff2a7
outf2007-03-02d1t03.flac:8319ec051043d747ff1de92727eea882
outf2007-03-02d1t04.flac:696b587d291080a3c5b9f917a68f2763
outf2007-03-02d1t05.flac:2e0dcc5501421bbcebeb5ac9d7067a65
outf2007-03-02d1t06.flac:b4667f64d9b979f3be0afc8d40dc6988
outf2007-03-02d1t07.flac:c48eba9b7f68ccf9e3cfda56dd79f008
outf2007-03-02d1t08.flac:52cefdb0d3db567810c61202b7d053d4
outf2007-03-02d1t09.flac:fc071a02c7c51ad14617623cfacd11a6
outf2007-03-02d1t10.flac:afd9c138ccb1d2551b2adc0032dc9969
outf2007-03-02d2t01.flac:9e4fd37973e0d6b3a15f856eca284468
outf2007-03-02d2t02.flac:48cae1c7ddc15fc64fe7cfe016a58fc6
outf2007-03-02d2t03.flac:86cfac980955e01f39e2c1075fc5ff5c
outf2007-03-02d2t04.flac:5e44b20a42dc66e3798f175b65e91640
outf2007-03-02d2t05.flac:d32a3ea14c8e21403019e14f2f2913cb
outf2007-03-02d2t06.flac:243b21255094cf8b8d739124d9feec85
outf2007-03-02d2t07.flac:42602a9362cab48c39902fee5f610779
outf2007-03-02d2t08.flac:68e403930679eb1874ebfb37b026de32
outf2007-03-02d2t09.flac:cabaaf1687756cd77ad1478b503d7ced
outf2007-03-02d3t01.flac:b5c3f9d876a6e5757c1294b67e51f344
outf2007-03-02d3t02.flac:bb36da8c4a99372a1bb11cbc1ff143be
outf2007-03-02d3t03.flac:9d7acd73c176234a0296cb1fbe5c1e7a
outf2007-03-02d3t04.flac:c3167446275954c84b26f02a306ae42c
outf2007-03-02d3t05.flac:7c2681496525c29ff3f3e87fe5109e88
outf2007-03-02d3t06.flac:423414474effea6af1e0f65c8d13bbc5
---------------------------------------------------------
shntool:
---------------------------------------------------------
    length     expanded size   cdr  WAVE problems filename
     6:11.49       65559692    ---   --   ---xx   outf2007-03-02d1t01.flac
     9:18.34       98511212    ---   --   ---xx   outf2007-03-02d1t02.flac
     5:57.43       63075980    ---   --   ---xx   outf2007-03-02d1t03.flac
     6:53.15       72888524    ---   --   ---xx   outf2007-03-02d1t04.flac
    10:18.23      109069340    ---   --   ---xx   outf2007-03-02d1t05.flac
     3:35.34       38006012    ---   --   ---xx   outf2007-03-02d1t06.flac
     7:31.67       79714028    ---   --   ---xx   outf2007-03-02d1t07.flac
     4:30.40       47722124    ---   --   ---xx   outf2007-03-02d1t08.flac
     9:48.29      103791452    ---   --   ---xx   outf2007-03-02d1t09.flac
     3:11.05       33704204    ---   --   ---xx   outf2007-03-02d1t10.flac
     4:45.67       50431628    ---   --   ---xx   outf2007-03-02d2t01.flac
     4:53.44       51788732    ---   --   ---xx   outf2007-03-02d2t02.flac
     9:05.50       96255644    ---   --   ---xx   outf2007-03-02d2t03.flac
    10:43.32      113500508    ---   --   ---xx   outf2007-03-02d2t04.flac
     8:49.31       93388556    ---   --   ---xx   outf2007-03-02d2t05.flac
     3:06.31       32883356    ---   --   ---xx   outf2007-03-02d2t06.flac
     2:38.54       27998252    ---   --   ---xx   outf2007-03-02d2t07.flac
     3:44.22       39565388    ---   --   ---xx   outf2007-03-02d2t08.flac
     8:24.01       88907996    ---   --   ---xx   outf2007-03-02d2t09.flac
     4:26.30       46993004    ---   --   ---xx   outf2007-03-02d3t01.flac
     9:06.28       96380300    ---   --   ---xx   outf2007-03-02d3t02.flac
    10:44.33      113679260    ---   --   ---xx   outf2007-03-02d3t03.flac
    10:25.56      110381756    ---   --   ---xx   outf2007-03-02d3t04.flac
     5:24.69       57315932    ---   --   ---xx   outf2007-03-02d3t05.flac
     5:12.49       55152092    ---   --   ---xx   outf2007-03-02d3t06.flac
   168:48.36     1786664972 B                     (totals for 25 files, 0.5816 overall compression ratio)
Show Checksums
ffp
outf2007-03-02d1t01.flac:ac7fcfaa597bd4b847530b5a1520c8fd
outf2007-03-02d1t02.flac:1ca341df5f02d0bf4ab6a65c713ff2a7
outf2007-03-02d1t03.flac:8319ec051043d747ff1de92727eea882
outf2007-03-02d1t04.flac:696b587d291080a3c5b9f917a68f2763
outf2007-03-02d1t05.flac:2e0dcc5501421bbcebeb5ac9d7067a65
outf2007-03-02d1t06.flac:b4667f64d9b979f3be0afc8d40dc6988
outf2007-03-02d1t07.flac:c48eba9b7f68ccf9e3cfda56dd79f008
outf2007-03-02d1t08.flac:52cefdb0d3db567810c61202b7d053d4
outf2007-03-02d1t09.flac:fc071a02c7c51ad14617623cfacd11a6
outf2007-03-02d1t10.flac:afd9c138ccb1d2551b2adc0032dc9969
outf2007-03-02d2t01.flac:9e4fd37973e0d6b3a15f856eca284468
outf2007-03-02d2t02.flac:48cae1c7ddc15fc64fe7cfe016a58fc6
outf2007-03-02d2t03.flac:86cfac980955e01f39e2c1075fc5ff5c
outf2007-03-02d2t04.flac:5e44b20a42dc66e3798f175b65e91640
outf2007-03-02d2t05.flac:d32a3ea14c8e21403019e14f2f2913cb
outf2007-03-02d2t06.flac:243b21255094cf8b8d739124d9feec85
outf2007-03-02d2t07.flac:42602a9362cab48c39902fee5f610779
outf2007-03-02d2t08.flac:68e403930679eb1874ebfb37b026de32
outf2007-03-02d2t09.flac:cabaaf1687756cd77ad1478b503d7ced
outf2007-03-02d3t01.flac:b5c3f9d876a6e5757c1294b67e51f344
outf2007-03-02d3t02.flac:bb36da8c4a99372a1bb11cbc1ff143be
outf2007-03-02d3t03.flac:9d7acd73c176234a0296cb1fbe5c1e7a
outf2007-03-02d3t04.flac:c3167446275954c84b26f02a306ae42c
outf2007-03-02d3t05.flac:7c2681496525c29ff3f3e87fe5109e88
outf2007-03-02d3t06.flac:423414474effea6af1e0f65c8d13bbc5

Comments
Add Comment
Other Sources (comments)
Schoeps... (0)
Date User Comment