Browse Collections Artists Sources   Search Dates

Add Show    List Management    Help


Outformation 03/03/07
8150 Club, Vail, CO
Comments Add Comment    Source Collectors    Add to Collection    Add to Want List    History
Source # 84119 Other Sources
Entered by
Checksums ffp
Disc Counts 2 / 2
Media Size
Date Circulated
Date Added
03/04/2007
04/11/2007
Source Summary Source: Schoeps mk41v(dina/fob/dfc/clamped to ceiling)~>kc5~>m222~>nt222 + SBD(Crest-X8)~>744t (24/48)
Lineage: 744t~>wavelab5~>cdwave~>wavelab5~>flac(6)
Taped & transfered by: Charles Fox 
  Archive
Source Information - Download Text | Download Zip
Outformation
8150 Club
Vail, CO
2007-03-03

source: Schoeps mk41v(dina)~>kc5~>m222~>nt222 + SBD(Crest-X8)~>744t (24/48)
location: fob/dfc/clamped to ceiling
dsp: 744t~>wavelab5~>cdwave~>wavelab5~>flac(6)
recorded & seeded: charles fox

set 1 disc 1
01 Intro~>
02 Cattle Drive
03 Edgewater
04 Winds
05 Start it out Again
06 Carnac
07 Travelers Rest
08 Can't Change the Past~>
09 Into my Arms

set 2 disc 2
01 Intro~>
02 A of D
03 90
04 center stage
05 Solid Country Gold
06 Bout' my $~>
07 Drums~>
08 Bout' my $
09 Birthday Jam
10 Burned Faceless

E:
11 Searching for a Rainbow
12 Long Hard Ride  

shntool
    length     expanded size   cdr  WAVE problems filename
     0:58.23       10285340    ---   --   ---xx   out2007-03-03d1t01.flac
     8:44.39       92525372    ---   --   ---xx   out2007-03-03d1t02.flac
     5:10.62       54829868    ---   --   ---xx   out2007-03-03d1t03.flac
     6:47.01       71797196    ---   --   ---xx   out2007-03-03d1t04.flac
    11:40.47      123590588    ---   --   ---xx   out2007-03-03d1t05.flac
    10:23.22      109948988    ---   --   ---xx   out2007-03-03d1t06.flac
     8:00.72       84841388    ---   --   ---xx   out2007-03-03d1t07.flac
     5:01.01       53098796    ---   --   ---xx   out2007-03-03d1t08.flac
     6:54.70       73194284    ---   --   ---xx   out2007-03-03d1t09.flac
     1:01.64       10910972    ---   --   ---xx   out2007-03-03d2t01.flac
     3:36.25       38161244    ---   --   ---xx   out2007-03-03d2t02.flac
     9:00.71       95423036    ---   --   ---xx   out2007-03-03d2t03.flac
    11:41.63      123804620    ---   --   ---xx   out2007-03-03d2t04.flac
     3:16.60       34715564    ---   --   ---xx   out2007-03-03d2t05.flac
     7:58.55       84448604    ---   --   ---xx   out2007-03-03d2t06.flac
     3:01.74       32102492    ---   --   ---xx   out2007-03-03d2t07.flac
     1:19.06       13949756    ---   --   ---xx   out2007-03-03d2t08.flac
     2:00.67       21325628    ---   --   ---xx   out2007-03-03d2t09.flac
     5:45.62       61003868    ---   --   ---xx   out2007-03-03d2t10.flac
     7:58.59       84458012    ---   --   ---xx   out2007-03-03d2t11.flac
     5:01.03       53103500    ---   --   ---xx   out2007-03-03d2t12.flac
   125:25.46     1327519116 B                     (totals for 21 files, 0.5772 overall compression ratio)


16 B                     (totals for 21 files, 0.5772 overall compression ratio)


Show Checksums
ffp
out2007-03-03d1t01.flac:8bb847884e7a89a6bd80429061cccc3d
out2007-03-03d1t02.flac:714e04544a599236bb0d592d23f65615
out2007-03-03d1t03.flac:bb37c3545b8fa7c3408aeeccf687696c
out2007-03-03d1t04.flac:916831aa32892ac176e6be7c8246c082
out2007-03-03d1t05.flac:a30f24eb2c6fb14f1f3e5eea94fe0e52
out2007-03-03d1t06.flac:fe37afe6339dc4fdf2e91b64d8dcb272
out2007-03-03d1t07.flac:3241234c914db788e1d9e6ecd7fe98ff
out2007-03-03d1t08.flac:381bd19d4237b1b30e2cecf0d008e33f
out2007-03-03d1t09.flac:7f8adfc281bfe3db47f59635d1600d03
out2007-03-03d2t01.flac:fd554f6e12d4d05f6eb0aab53ce9ab91
out2007-03-03d2t02.flac:313f3e0a7989c33ff94ab36cb4581a3a
out2007-03-03d2t03.flac:7e276c40e8241d144a354c68c188d804
out2007-03-03d2t04.flac:0b7e1065d291895206d591295d730310
out2007-03-03d2t05.flac:0d0dfb5f90fbbea14f87151f62b75d68
out2007-03-03d2t06.flac:c68e49f58d7523a8f1f8c02d9ce5222d
out2007-03-03d2t07.flac:5aa14934bd8760e2dd84b8d7eaaf9668
out2007-03-03d2t08.flac:ff8d38c6abc1db79412af78978d79357
out2007-03-03d2t09.flac:00814bf77ba38ef2dcb5101b4970f819
out2007-03-03d2t10.flac:1a70532e14c9382d0cd25cc4f835b97e
out2007-03-03d2t11.flac:cf89bc16aa07d4e23f96efbfddaa60a1
out2007-03-03d2t12.flac:b10fefd7fa3648b6e30fa40e5c9ae594

Comments
Add Comment
Date User Comment