Browse Collections Artists Sources   Search Dates

Add Show    List Management    Help


Outformation 03/04/07
The Goat Soup & Whiskey Tavern, Keystone, CO
Comments Add Comment    Source Collectors    Add to Collection    Add to Want List    History
Source # 84120 Other Sources
Entered by Todd
Checksums ffp
Disc Counts 2 / 3
Media Size
Date Circulated
Date Added
03/05/2007
04/11/2007
Source Summary SBD + (Stage) Schoeps MK2/KC5/M222/NT222 > SD744t > WaveLab > CDWav > Flac(6)
Taped and transfered by Charles Fox 
  Archive
Source Information - Download Text | Download Zip
Outformation
The Goat Soup & Whiskey Tavern
Keystone, CO
2007-03-04

source: Schoeps mk2s(nos)~>kc5~>m222~>nt222 + SBD(Allen & Heath GL2400)~>744t @ (24/48)
location: onstage/dfc
dsp: 744t~>wavelab5~>cdwave~>wavelab5~>flac(6)
recorded & seeded: charles fox

set 1 disc 1
01 Valley Blue
02 Tennessee Before Daylight
03 Into my Arms
04 Lonesome Or'nry & Mean
05 Later
06 Bout' my $~>
07 Drums~>
08 Bout' my $
09 Carnac
10 Can't Change the Past

set 2 disc 2
01 Intro~>
02 Travelers Rest
03 Edgewater
04 Toys Lament
05 Sweet Louisiana
06 Brand New
07 Bad Bitch
08 Stone in my Shoe
09 Take Out~>
10 90

set 2 disc 3
E:
01 Red Neck Mother
02 West La Fadeaway
03 Midnight Promises
04 Titles~>
05 Chicken Pickin~>
06 Titles

ffp
out2007-03-04d1t01.flac:e9b3c8eb3f05a30832d1cbb926fb259f
out2007-03-04d1t02.flac:5d957d82c2cc7c713fbc90d12e6acfd0
out2007-03-04d1t03.flac:4a1bdfb698625b81ed3ed63eff0a3b56
out2007-03-04d1t04.flac:165576bb82a2073452a9a7427ca61165
out2007-03-04d1t05.flac:94d2cfad3c2ff52c7bd398b3a4273397
out2007-03-04d1t06.flac:8b7e8949df1403b010a79890fa7a76a7
out2007-03-04d1t07.flac:f4a09c4f06e23b2c0210224a16e5e478
out2007-03-04d1t08.flac:e74d171a12a5633264c2d595729a342f
out2007-03-04d1t09.flac:cb2a260dc3dd698298a09932fad79bf4
out2007-03-04d1t10.flac:465b15fd5c69f1665df9c89c6c04d1fc
out2007-03-04d2t01.flac:bf7967337d230fd438647bc71a7d8fe4
out2007-03-04d2t02.flac:ff6b1afe583140c1932e605b690f5a34
out2007-03-04d2t03.flac:7f364d771aa7a0b16490a293ac88d68c
out2007-03-04d2t04.flac:b6d42d26801465dc0684acc08cbbaf95
out2007-03-04d2t05.flac:5a2f6a383bb89b13e5e9fea9d4de29a4
out2007-03-04d2t06.flac:1e0654700278bad0ba0e2cffcf2433b8
out2007-03-04d2t07.flac:bb34203aa577508cdea0dd9e41a98a25
out2007-03-04d2t08.flac:c6b295f9ca399dd0aba080dfc2934b5e
out2007-03-04d2t09.flac:6d5caa9d3d449865304cef72468b4a74
out2007-03-04d2t10.flac:92947a874edea3bf9c37741221ecb83b
out2007-03-04d3t01.flac:e858d5e3cf13b0ab587b6b20a4494bf4
out2007-03-04d3t02.flac:ea6b170fef2dafd746817cd171b4743e
out2007-03-04d3t03.flac:f397d968870bd32f3aa35d1b5b03781a
out2007-03-04d3t04.flac:c8abe1d7de2a647d3f655ffd1d76a87d
out2007-03-04d3t05.flac:bd606a748e40bc24ed803f1f34d2a9d9
out2007-03-04d3t06.flac:17d1cde55711ebfe01e3162d10fbb28e

shntool
    length     expanded size   cdr  WAVE problems filename
     3:37.05       38290604    ---   --   ---xx   out2007-03-04d1t01.flac
     7:07.20       75369884    ---   --   ---xx   out2007-03-04d1t02.flac
     7:40.42       81242828    ---   --   ---xx   out2007-03-04d1t03.flac
     3:40.38       38897420    ---   --   ---xx   out2007-03-04d1t04.flac
     5:46.03       61041500    ---   --   ---xx   out2007-03-04d1t05.flac
     9:06.13       96345020    ---   --   ---xx   out2007-03-04d1t06.flac
     1:47.20       18921884    ---   --   ---xx   out2007-03-04d1t07.flac
     1:46.07       18714908    ---   --   ---xx   out2007-03-04d1t08.flac
     9:18.66       98586476    ---   --   ---xx   out2007-03-04d1t09.flac
     5:03.64       53599772    ---   --   ---xx   out2007-03-04d1t10.flac
     0:53.59        9488012    ---   --   ---xx   out2007-03-04d2t01.flac
     8:35.28       90911900    ---   --   ---xx   out2007-03-04d2t02.flac
     6:06.33       64640060    ---   --   ---xx   out2007-03-04d2t03.flac
     8:02.66       85180076    ---   --   ---xx   out2007-03-04d2t04.flac
     5:31.24       58444892    ---   --   ---xx   out2007-03-04d2t05.flac
     6:17.16       66540476    ---   --   ---xx   out2007-03-04d2t06.flac
     5:32.14       58597772    ---   --   ---xx   out2007-03-04d2t07.flac
    14:06.61      149377916    ---   --   ---xx   out2007-03-04d2t08.flac
     2:25.38       25667420    ---   --   ---xx   out2007-03-04d2t09.flac
     8:41.55       92033804    ---   --   ---xx   out2007-03-04d2t10.flac
     3:44.02       39518348    ---   --   ---xx   out2007-03-04d3t01.flac
     7:38.35       80873564    ---   --   ---xx   out2007-03-04d3t02.flac
     7:22.35       78051164    ---   --   ---xx   out2007-03-04d3t03.flac
     5:21.29       56692652    ---   --   ---xx   out2007-03-04d3t04.flac
     4:25.72       46915388    ---   --   ---xx   out2007-03-04d3t05.flac
     1:48.63       19199420    ---   --   ---xx   out2007-03-04d3t06.flac
   151:28.08     1603143160 B                     (totals for 26 files, 0.5745 overall compression ratio)
Show Checksums
ffp
out2007-03-04d1t01.flac:e9b3c8eb3f05a30832d1cbb926fb259f
out2007-03-04d1t02.flac:5d957d82c2cc7c713fbc90d12e6acfd0
out2007-03-04d1t03.flac:4a1bdfb698625b81ed3ed63eff0a3b56
out2007-03-04d1t04.flac:165576bb82a2073452a9a7427ca61165
out2007-03-04d1t05.flac:94d2cfad3c2ff52c7bd398b3a4273397
out2007-03-04d1t06.flac:8b7e8949df1403b010a79890fa7a76a7
out2007-03-04d1t07.flac:f4a09c4f06e23b2c0210224a16e5e478
out2007-03-04d1t08.flac:e74d171a12a5633264c2d595729a342f
out2007-03-04d1t09.flac:cb2a260dc3dd698298a09932fad79bf4
out2007-03-04d1t10.flac:465b15fd5c69f1665df9c89c6c04d1fc
out2007-03-04d2t01.flac:bf7967337d230fd438647bc71a7d8fe4
out2007-03-04d2t02.flac:ff6b1afe583140c1932e605b690f5a34
out2007-03-04d2t03.flac:7f364d771aa7a0b16490a293ac88d68c
out2007-03-04d2t04.flac:b6d42d26801465dc0684acc08cbbaf95
out2007-03-04d2t05.flac:5a2f6a383bb89b13e5e9fea9d4de29a4
out2007-03-04d2t06.flac:1e0654700278bad0ba0e2cffcf2433b8
out2007-03-04d2t07.flac:bb34203aa577508cdea0dd9e41a98a25
out2007-03-04d2t08.flac:c6b295f9ca399dd0aba080dfc2934b5e
out2007-03-04d2t09.flac:6d5caa9d3d449865304cef72468b4a74
out2007-03-04d2t10.flac:92947a874edea3bf9c37741221ecb83b
out2007-03-04d3t01.flac:e858d5e3cf13b0ab587b6b20a4494bf4
out2007-03-04d3t02.flac:ea6b170fef2dafd746817cd171b4743e
out2007-03-04d3t03.flac:f397d968870bd32f3aa35d1b5b03781a
out2007-03-04d3t04.flac:c8abe1d7de2a647d3f655ffd1d76a87d
out2007-03-04d3t05.flac:bd606a748e40bc24ed803f1f34d2a9d9
out2007-03-04d3t06.flac:17d1cde55711ebfe01e3162d10fbb28e

Comments
Add Comment
Date User Comment