Browse Collections Artists Sources   Search Dates

Add Show    List Management    Help


Outformation 01/20/07
House of Blues, Orlando, FL
Comments Add Comment    Source Collectors    Add to Collection    Add to Want List    History
Source # 84137 Other Sources
Entered by Todd
Checksums ffp
Disc Counts 1 / 1
Media Size
Date Circulated
Date Added
01/21/2007
04/12/2007
Source Summary (FOB) Schoeps MK41v/KC5/M222/NT222 + (FOB) Schoeps MK4/MK8/KCY/VMS5U > SD744t > WaveLab > CDWav > Flac(6)
Taped and transfered by Charles Fox 
  Archive
Source Information - Download Text | Download Zip
JB & Friends
Outformation
House of Blues
Orlando, FL
2007-01-20

source: Schoeps mk41v(dina)~>kc5~>m222~>nt222 + mk4v/mk8(mid-side)~>kcy~>vms5u~>744t (24/96)
location: fob/loc
transfer: 744t~>wavelab5~>cdwave~>wavelab5~>flac(6)
recorded & seeded: charles fox

1 set/disc 1
01 Intro/tuning
02 Edgewater
03 Later
04 Stone In My Shoe
05 Can't Change The Past
06 Winds >
07 Into My Arms
08 Titles Of Movies Will Not Appear On Bill*
09 Sweet Louisiana >
10 Long Hard Ride

*Jimmy Herring on guitar

setlist compliments of www.setformation.com

ffp
outformation2007-01-20t01.flac:5e8334f98ed854d7238b0f5c49e8fca1
outformation2007-01-20t02.flac:ef0780434cc0d0f2d794c087a466be64
outformation2007-01-20t03.flac:545507b121128fef4ae81f090270be78
outformation2007-01-20t04.flac:f189dfee0f1197fda74579af96eff536
outformation2007-01-20t05.flac:3ad901f39813746bebd87a88717eb50b
outformation2007-01-20t06.flac:a977f618006ecd51e49ac202dea0a7a6
outformation2007-01-20t07.flac:340bfe3324dbac004d0b3e49aa1c40cf
outformation2007-01-20t08.flac:e1ff6ec6ac1e102777db9af164dee017
outformation2007-01-20t09.flac:f0b4a2cff76aae2f7cbcaa5a14ec9de4
outformation2007-01-20t10.flac:36d39c00f2e8dae9e2f493b898c21864

shntool
    length     expanded size   cdr  WAVE problems filename
     0:39.67        7037228    ---   --   ---xx   outformation2007-01-20t01.flac
     5:10.23       54738140    ---   --   ---xx   outformation2007-01-20t02.flac
     6:25.60       68055164    ---   --   ---xx   outformation2007-01-20t03.flac
    12:46.14      135155372    ---   --   ---xx   outformation2007-01-20t04.flac
     5:12.44       55140332    ---   --   ---xx   outformation2007-01-20t05.flac
     6:32.32       69224108    ---   --   ---xx   outformation2007-01-20t06.flac
     7:36.55       80567804    ---   --   ---xx   outformation2007-01-20t07.flac
    10:00.02      105844748    ---   --   ---xx   outformation2007-01-20t08.flac
     4:26.58       47058860    ---   --   ---xx   outformation2007-01-20t09.flac
     3:47.57       40176908    ---   --   ---xx   outformation2007-01-20t10.flac
    62:38.37      662998664 B                     (totals for 10 files, 0.5675 overall compression ratio)
Show Checksums
ffp
outformation2007-01-20t01.flac:5e8334f98ed854d7238b0f5c49e8fca1
outformation2007-01-20t02.flac:ef0780434cc0d0f2d794c087a466be64
outformation2007-01-20t03.flac:545507b121128fef4ae81f090270be78
outformation2007-01-20t04.flac:f189dfee0f1197fda74579af96eff536
outformation2007-01-20t05.flac:3ad901f39813746bebd87a88717eb50b
outformation2007-01-20t06.flac:a977f618006ecd51e49ac202dea0a7a6
outformation2007-01-20t07.flac:340bfe3324dbac004d0b3e49aa1c40cf
outformation2007-01-20t08.flac:e1ff6ec6ac1e102777db9af164dee017
outformation2007-01-20t09.flac:f0b4a2cff76aae2f7cbcaa5a14ec9de4
outformation2007-01-20t10.flac:36d39c00f2e8dae9e2f493b898c21864

Comments
Add Comment
Date User Comment