Browse Collections Artists Sources   Search Dates

Add Show    List Management    Help


Grateful Dead 12/26/81
Oakland Auditorium Arena, Oakland, CA
Comments Add Comment    Source Collectors    Add to Collection    Add to Want List    History
Source # 84265 Other Sources
Entered by Matt Vernon
Checksums ffp , flac-md5
Disc Counts 2 / 3
Media Size
Date Circulated
Date Added
04/15/2007
04/15/2007
Source Summary flac16; Recording Info: Set 1: SBD -> Cassette Master -> Cassette -> LynxOne -> CD Set 2: SBD -> Cassette Master (Maxell UDXLII-90) Set 1 Transfer Info: CD -> Samplitude Professional v9.02 -> FLAC Set 2 Transfer Info: Cassette Master (Tascam 122mkII) -> Apogee MiniMe (24bit/48k) -> Samplitude Professional v9.02 -> FLAC/16 All Transfers and Mastering By Charlie Miller; note: this version has the 2 drop outs in shn id 83996 d3t02 fixed 
  Archive
Source Information - Download Text | Download Zip
Grateful Dead - December 26, 1981
Oakland Auditorium - Oakland, CA

Recording Info:
Set 1: SBD -> Cassette Master -> Cassette -> LynxOne -> CD
Set 2: SBD -> Cassette Master (Maxell UDXLII-90)

Set 1 Transfer Info:
CD -> Samplitude Professional v9.02 -> FLAC

Set 2 Transfer Info:
Cassette Master (Tascam 122mkII) -> Apogee MiniMe (24bit/48k) ->
Samplitude Professional v9.02 -> FLAC/16
(3 Discs Audio / 2 Discs FLAC)

All Transfers and Mastering By Charlie Miller
[email protected]
April 14, 2007

Patch Info:
(FOB) 2 Nakamichi CM700's + 1 Shure Mic -> Cassette Master
He's Gone (10:31 - 10:50)
Black Peter (9:08 - 9:21)
Around And Around (0:03 - 0:10)

Notes:
-- Set 1 was not Dolby decoded properly, has many issues
-- Set 2 is seamless
-- Set 2 was pitch adjusted +3.7%
-- Thanks to Paul Scotton and Joani Walker for the Set 2 tapes
-- Thanks to Joe B. Jones for his help with this project
-- Patch source recorded by Steve Martin (shnid=23897)
-- This version has the 2 drop outs in d3t02 fixed

Set 1:
d1t01 - Alabama Getaway >
d1t02 - The Promised Land
d1t03 - Candyman
d1t04 - Little Red Rooster
d1t05 - Big Boss Man
d1t06 - Me and My Uncle >
d1t07 - Big River
d1t08 - Bird Song
d1t09 - It's All Over Now
d1t10 - Big Railroad Blues
d1t11 - Let It Grow

Set 2:
d2t01 - Tuning
d2t02 - Scarlet Begonias >
d2t03 - Fire On The Mountain
d2t04 - Estimated Prophet >
d2t05 - He's Gone >
d2t06 - Drums >
d3t01 - Space >
d3t02 - A Day At The Dentist >
d3t03 - The Eleven Jam >
d3t04 - Truckin' >
d3t05 - Black Peter >
d3t06 - Around and Around >
d3t07 - One More Saturday Night

Encore:
d3t08 - Don't Ease Me In


SHNTOOL OUTPUT:
    length     expanded size   cdr  WAVE problems filename
     4:32.40       48074924    ---   --   -----   gd81-12-26d1t01.flac
     4:07.19       43615532    ---   --   -----   gd81-12-26d1t02.flac
     6:36.51       69974396    ---   --   -----   gd81-12-26d1t03.flac
     8:12.59       86927612    ---   --   -----   gd81-12-26d1t04.flac
     4:33.32       48232508    ---   --   -----   gd81-12-26d1t05.flac
     2:54.54       30820652    ---   --   -----   gd81-12-26d1t06.flac
     5:25.45       57435884    ---   --   -----   gd81-12-26d1t07.flac
    11:48.65      125044124    ---   --   -----   gd81-12-26d1t08.flac
     8:45.56       92741756    ---   --   -----   gd81-12-26d1t09.flac
     3:47.35       40125164    ---   --   -----   gd81-12-26d1t10.flac
    12:10.16      128809676    ---   --   -----   gd81-12-26d1t11.flac
     2:09.14       22788572    ---   --   -----   gd81-12-26d2t01.flac
    12:15.07      129670508    ---   --   -----   gd81-12-26d2t02.flac
    11:15.48      119182940    ---   --   -----   gd81-12-26d2t03.flac
    11:58.65      126808124    ---   --   -----   gd81-12-26d2t04.flac
    14:23.73      152404940    ---   --   -----   gd81-12-26d2t05.flac
     7:07.47       75433388    ---   --   -----   gd81-12-26d2t06.flac
     2:53.47       30627788    ---   --   -----   gd81-12-26d3t01.flac
    10:26.74      110600492    ---   --   -----   gd81-12-26d3t02.flac
     4:21.68       46200380    ---   --   -----   gd81-12-26d3t03.flac
     8:04.11       85403516    ---   --   -----   gd81-12-26d3t04.flac
    10:36.26      112251596    ---   --   -----   gd81-12-26d3t05.flac
     3:45.02       39694748    ---   --   -----   gd81-12-26d3t06.flac
     5:01.07       53112908    ---   --   -----   gd81-12-26d3t07.flac
     3:28.62       36837068    ---   --   -----   gd81-12-26d3t08.flac
   180:43.48     1912819196 B                     (totals for 25 files)
Show Checksums
ffp
gd81-12-26d1t01.flac:5dd6d0b5fb6689919b574661644684fb
gd81-12-26d1t02.flac:60fb90bcfd112243c95286a6fdd586f6
gd81-12-26d1t03.flac:6b1f543dc9d6e5ab0f5daacb22179b37
gd81-12-26d1t04.flac:98eb2e9d736d47b6319925cc2810d72b
gd81-12-26d1t05.flac:6ce1660c8211fcbe3344b142ce14ffb7
gd81-12-26d1t06.flac:a96ac4b3fe60f71b1db1915874d80098
gd81-12-26d1t07.flac:34a3e0a08aef8027b102de55c345cd4d
gd81-12-26d1t08.flac:18877022c72704e7f25bd6b3dde65c5e
gd81-12-26d1t09.flac:55678967d10be79fc685f68b21f3e249
gd81-12-26d1t10.flac:231e12f8fd9aedfc671ddf089fc29e51
gd81-12-26d1t11.flac:428bc5156faabf6b7812485b0a73cc08
gd81-12-26d2t01.flac:2cdb46ec60ce398d8eaf532b264a1838
gd81-12-26d2t02.flac:4097e408bc9102a0289229a96c13e8ce
gd81-12-26d2t03.flac:bb9d7783621c9b7616286f2c6608d766
gd81-12-26d2t04.flac:0af13d0dd3d277c282fb9c811c4233c4
gd81-12-26d2t05.flac:c7d4f9255dc47766610469f0f70e5f12
gd81-12-26d2t06.flac:aa7cb9817a4d521f390ad5b142e18b04
gd81-12-26d3t01.flac:8cd2c0e57764af8e665fe0ad84f71abe
gd81-12-26d3t02.flac:eef2bac84d786cb6923101f6ccc3c664
gd81-12-26d3t03.flac:38c17f0f587bb752644b4a4cd8fd2bac
gd81-12-26d3t04.flac:ae25e9d37add3050366f895a0e4f48ea
gd81-12-26d3t05.flac:05e26086c612541aea1b1a466580dcda
gd81-12-26d3t06.flac:b30d908cbc7688e12082de5afd658fe1
gd81-12-26d3t07.flac:4318444ed1156bdf055b8dccf039b6c9
gd81-12-26d3t08.flac:289d9e0e6af07af26aefea8c38eb04cc
flac-md5
9bf09448594c6c7350685596377358a4 *gd81-12-26d1t01.flac
b92a266f9a53099faa2575866fdad0f9 *gd81-12-26d1t02.flac
ba9f37cf507778a3b6d676068aa6d7e6 *gd81-12-26d1t03.flac
96e0a9f291f3052d9d931bccfff9ddf8 *gd81-12-26d1t04.flac
09c9989231a8d2864388cf674935751e *gd81-12-26d1t05.flac
686ff0b5c3d437835b490992545b2e97 *gd81-12-26d1t06.flac
1fa9cf5a5cd0de1f3873757c74e98b69 *gd81-12-26d1t07.flac
8db88374cecd0fe78a834e8ef8110e3b *gd81-12-26d1t08.flac
071d46ba81e6cbc7da502bc7bc39fce1 *gd81-12-26d1t09.flac
1c314ecd1170c9eea3b4584ac74a0886 *gd81-12-26d1t10.flac
3a0e3d14712f782378267e9cc47027a8 *gd81-12-26d1t11.flac
7128dcaf6e857f3ae46600c1e4d8b644 *gd81-12-26d2t01.flac
403be4c02cd387e9cdd30ab82060f475 *gd81-12-26d2t02.flac
0358c13ae3d82d13235c9bd62eb8c64d *gd81-12-26d2t03.flac
7ae6d2948b18b8f9a6f40234e36eea72 *gd81-12-26d2t04.flac
6bc13301115ef471a7ada9571b10e4eb *gd81-12-26d2t05.flac
788bcb3edc33cb14eec15a7183b43ba3 *gd81-12-26d2t06.flac
412f357b9a1d4dc1e34f5a32763cf28b *gd81-12-26d3t01.flac
07b83074c297e0a42de82b8680e7497e *gd81-12-26d3t02.flac
67dc5bd8a466fc509351152c69b6230e *gd81-12-26d3t03.flac
5ac527bb682ba7b6a4878b6e3919564c *gd81-12-26d3t04.flac
7a011769ed8c8ee9f03dd1164ae20bf7 *gd81-12-26d3t05.flac
3f8196cf2088ee2592ac4830abb52462 *gd81-12-26d3t06.flac
b22f38892056d56d7ecdb810db383b27 *gd81-12-26d3t07.flac
9755aa4aff5f98da60b776e3f8ccb8c9 *gd81-12-26d3t08.flac

Comments
Add Comment
Other Sources (comments)
Recording by Bob Menke.... (1) flac16; Recording by... (2) flac16 Set 1: SBD ->... (2) flac16; Audience... (0) flac16; AUD:... (0)
Date User Comment