Browse Collections Artists Sources   Search Dates

Add Show    List Management    Help


Grateful Dead 03/12/85
Berkeley Community Theater, Berkeley, CA
Comments Add Comment    Source Collectors    Add to Collection    Add to Want List    History
Source # 84323 Other Sources
Entered by Matt Vernon
Checksums ffp , flac-md5
Disc Counts 2 / 2
Media Size
Date Circulated
Date Added
04/17/2007
04/17/2007
Source Summary flac16; MAC; Sennheiser 421's > Sony TC-D5M > TDK MA90 Cassettes Taper: Mark McCue Transfer: Master Audience Cassettes > Nakamichi Dragon > Kind Kables RCA/XLR > Lunatec V3 (@2496) > coax > Audiophile 2496 > WaveLab 5.0 > WAV @24/96 > Waves L2 (dither) > WAV @16/44.1 > CD Wave Editor > TLH > FLAC16. Master Audience Cassettes provided by Mark McCue. Transfer, edits, conversion and seeding by Alex Ford. 
  Archive
Source Information - Download Text | Download Zip
Grateful Dead
3/12/85 (Tuesday)
Berkeley Community Theatre
Berkeley, CA

Source: Sennheiser 421's > Sony TC-D5M > TDK MA90 Cassettes

Location: directly behind SBD

Taper: Mark McCue

Transfer: Master Audience Cassettes > Nakamichi Dragon > Kind Kables RCA/XLR > Lunatec V3 (@2496) > coax >
Audiophile 2496 > WaveLab 5.0 > WAV @24/96 > Waves L2 (dither) > WAV @16/44.1 > CD Wave Editor > TLH > FLAC16.


Set I:

d1t01 crowd/tuning
d1t02 Iko Iko
d1t03 Little Red Rooster*
d1t04 Dupree's Diamond Blues
d1t05 Me and My Uncle >
d1t06 Big River
d1t07 West L.A. Fadeaway  
d1t08 Looks Like Rain
d1t09 Don't Ease Me In

Set II:

d2t01 crowd/tuning
d2t02 Touch Of Grey
d2t03 Playing In The Band >
d2t04 Drums >
d2t05 Space >
d2t06 He's Gone >
d2t07 Throwing Stones >
d2t08 Not Fade Away >
d2t09 Turn On Your Lovelight
Encore:
d2t10 U.S. Blues




Comment:

- * With Matt Kelly on harmonica

Notes:

- SBE's fixed w/ TLH. Files encoded @ level 8.
- Tape flip in d2t05 Space smoothed w/ WaveLab.
- 24 bit files archived.
- Master Audience Cassettes provided by Mark McCue.
- Transfer, edits, conversion and seeding by Alex Ford.



Shntool Output:

    length     expanded size   cdr  WAVE problems filename
     0:22.14        3913772    ---   --   -----   gd1985-03-12-mccue-d1t01.wav
     6:18.72       66848588    ---   --   -----   gd1985-03-12-mccue-d1t02.wav
     9:35.08      101448860    ---   --   -----   gd1985-03-12-mccue-d1t03.wav
     6:55.35       73288364    ---   --   -----   gd1985-03-12-mccue-d1t04.wav
     3:02.31       32177756    ---   --   -----   gd1985-03-12-mccue-d1t05.wav
     5:27.44       57786332    ---   --   -----   gd1985-03-12-mccue-d1t06.wav
     7:49.32       82806908    ---   --   -----   gd1985-03-12-mccue-d1t07.wav
     9:41.23      102542540    ---   --   -----   gd1985-03-12-mccue-d1t08.wav
     3:22.40       35726924    ---   --   -----   gd1985-03-12-mccue-d1t09.wav
     0:30.66        5447276    ---   --   -----   gd1985-03-12-mccue-d2t01.wav
     7:21.06       77806556    ---   --   -----   gd1985-03-12-mccue-d2t02.wav
    15:57.68      168974780    ---   --   -----   gd1985-03-12-mccue-d2t03.wav
     9:22.02       99141548    ---   --   -----   gd1985-03-12-mccue-d2t04.wav
     7:16.53       77035100    ---   --   -----   gd1985-03-12-mccue-d2t05.wav
    10:33.26      111722396    ---   --   -----   gd1985-03-12-mccue-d2t06.wav
     9:10.39       97111772    ---   --   -----   gd1985-03-12-mccue-d2t07.wav
     4:58.19       52611932    ---   --   -----   gd1985-03-12-mccue-d2t08.wav
     7:19.28       77505500    ---   --   -----   gd1985-03-12-mccue-d2t09.wav
     5:17.54       56045852    ---   --   -----   gd1985-03-12-mccue-d2t10.wav
   130:22.60     1379942756 B                     (totals for 19 files, 1.0000 overall compression ratio)
Show Checksums
ffp
gd1985-03-12-mccue-d1t01.flac:05222acb6e55f75c7c6c40bd3d967e74
gd1985-03-12-mccue-d1t02.flac:bdf41547f26df06a65f7e5f83ce0bfa4
gd1985-03-12-mccue-d1t03.flac:4a79dd767403d8f369326a05a2ecb9cb
gd1985-03-12-mccue-d1t04.flac:3f421b8956d5ed5e040aa215c7a8c24c
gd1985-03-12-mccue-d1t05.flac:1d2d60273eee742f83c4d2eaf2484653
gd1985-03-12-mccue-d1t06.flac:1e68bd9b3c43c374eee66cd4bbddfa6f
gd1985-03-12-mccue-d1t07.flac:0ae0bf9df7c6ebf4d3adf7441e748622
gd1985-03-12-mccue-d1t08.flac:183d217dea895d617c422218bf29310f
gd1985-03-12-mccue-d1t09.flac:f36b7eee27332ba6c484aa64fb1c15da
gd1985-03-12-mccue-d2t01.flac:0137a6bb8d11f32c95a5d26a68b5e1c0
gd1985-03-12-mccue-d2t02.flac:d3beee0bd6421559295a8e053f2e4b99
gd1985-03-12-mccue-d2t03.flac:41485a2397e1d1ce01bc3a1bec8b4c7a
gd1985-03-12-mccue-d2t04.flac:4c7f283d2a9aa75ee124ff86ec6724cd
gd1985-03-12-mccue-d2t05.flac:ba5be72775be895a7f56176c0e108cc3
gd1985-03-12-mccue-d2t06.flac:031044ddf460b2f2825f58c0c7fe9da1
gd1985-03-12-mccue-d2t07.flac:624a526f341082ccf6dae0bc4a026b31
gd1985-03-12-mccue-d2t08.flac:42316685e5be9fb4ba28e7ec5c1a4381
gd1985-03-12-mccue-d2t09.flac:f04ed06a2c181b3c24c6344bafcf14bf
gd1985-03-12-mccue-d2t10.flac:8d97f80f7b2b2d7e529a5a7de8ef93c5
flac-md5
bc4d6dfea7cf96b9513c8eb088ced649 *gd1985-03-12-mccue-d1t01.flac
9f2695dad3621500884fed3cdce78d58 *gd1985-03-12-mccue-d1t02.flac
61856afe270fc9362e9e5ce8b0530f9a *gd1985-03-12-mccue-d1t03.flac
91be596077d86b25e9ae32036072825d *gd1985-03-12-mccue-d1t04.flac
6443c81e864f1344da0fef26eed61e8c *gd1985-03-12-mccue-d1t05.flac
331bf7abb8ab31f589fa94aca70143b3 *gd1985-03-12-mccue-d1t06.flac
0d8c60f1cbed5b3e505578299a617af2 *gd1985-03-12-mccue-d1t07.flac
aafbd55f6b934dfcdaecf09f682c6ef7 *gd1985-03-12-mccue-d1t08.flac
106116ac9dff9bbb0aa5f1b1b6158108 *gd1985-03-12-mccue-d1t09.flac
2cb998d554229550a5419f6859f160c2 *gd1985-03-12-mccue-d2t01.flac
4a3674404f689070c67346d2abca6097 *gd1985-03-12-mccue-d2t02.flac
7a0816fc697d6a2589857dd5ffcdd0be *gd1985-03-12-mccue-d2t03.flac
dd11d734f0b9c9e94fff6127d55dc7dc *gd1985-03-12-mccue-d2t04.flac
85d8605789b47a1ac58524bf296955f1 *gd1985-03-12-mccue-d2t05.flac
800a9020ce709e735351ec4a99311996 *gd1985-03-12-mccue-d2t06.flac
15c05532d77f44d96471b14ce4340b91 *gd1985-03-12-mccue-d2t07.flac
4d6ed69b4492f0552c2024ffab9233d8 *gd1985-03-12-mccue-d2t08.flac
c17f45c45047a6e811b50dd6b7803212 *gd1985-03-12-mccue-d2t09.flac
e7b5a2535be7905fe59946f8e8c29fe3 *gd1985-03-12-mccue-d2t10.flac

Comments
Add Comment
Other Sources (comments)
FOB Senn421's > Master... (0) Sennheiser MD-421's > Sony... (1) flac16; Lineage: 2x... (0) flac16; Recorded by... (0) flac16;Taper: Greg... (0)
Date User Comment