Browse Collections Artists Sources   Search Dates

Add Show    List Management    Help


Drive-By Truckers 01/19/06
40 Watt Club, Athens, GA
Comments Add Comment    Source Collectors    Add to Collection    Add to Want List    History
Source # 84420 Other Sources
Entered by Kyle pike
Checksums ffp
Disc Counts 0 / 0
Media Size
Date Circulated
Date Added

04/20/2007
Source Summary Neumann KM-184(DIN)> Lunatec V2> Nomad Jukebox 3 (Sloan Simpson) 
  Archive
Source Information - Download Text | Download Zip
Drive-By Truckers - 1/19/06
40 Watt Club - Athens, GA

Disc One:

01) Wednesday
02) A Blessing And A Curse
03) Marry Me
04) Easy On Yourself
05) Lookout Mountain
06) Uncle Frank
07) Gravity's Gone
08) Margo And Harold
09) Goddamn Lonely Love
10) Goodbye
11) Sink Hole
12) Women Without Whiskey
13) My Sweet Annette
14) The Company I Keep

Disc Two:

01) Daylight
02) Careless
03) Where The Devil Don't Stay
04) Dead Drunk And Naked
05) Guitar Man Upstairs
06) Never Gonna Change
07) Feb. 14
08) Let There Be Rock
09) E:) Space City
10) World Of Hurt
11) The Living Bubba
12) Outfit
13) Shut Up And Get On The Plane
14) Ain't Talkin' 'Bout Love

www.drivebytruckers.com

Patterson Hood - guitar, vocal
Mike Cooley - guitar, vocal
Jason Isbell - guitar, keyboard, vocal
Shonna Tucker - bass
Brad "The EZB" Morgan - drums
John Neff - pedal steel

Source: Neumann KM-184(DIN)> Lunatec V2> Nomad Jukebox 3
Transfer: Nomad Jukebox 3> Firewire> Cool Edit Pro(DSP)> CDWave> FLAC Frontend

Recorded and transferred by Sloan Simpson

dbt2005-01-19d1t04.flac:0c83e25f6cd20095faac8345d7ca005d
dbt2005-01-19d1t05.flac:02fda86aa2ea0a6c47589d53c75dcffd
dbt2005-01-19d1t06.flac:a40abcf8d4df017601e3116a8b606cd8
dbt2005-01-19d1t07.flac:d624047d5920daa040b517443da6e889
dbt2005-01-19d1t08.flac:ed359e08bf366c65573288ada1216393
dbt2005-01-19d1t09.flac:0d200c0493a9a5f0be2749b4f5684f3f
dbt2005-01-19d1t10.flac:b30ac532190242f9b50ecf8f1eb2816d
dbt2005-01-19d1t11.flac:37346979781ce332be73de57ddf8b251
dbt2005-01-19d1t12.flac:78dc174894788da6636a74dec34c3b75
dbt2005-01-19d1t13.flac:0c935458ed678d40a2f29a4b3e41c3ef
dbt2005-01-19d1t14.flac:8d10239ab2b0f854eb3a49d59781b248
dbt2005-01-19d2t01.flac:67d8ed5a4ad8e61ffa0838d35693e46c
dbt2005-01-19d2t02.flac:8aeb42070689737903d0271e4dabd4ef
dbt2005-01-19d2t03.flac:4513e759993901f2662939227b018823
dbt2005-01-19d2t04.flac:800e8000873236737579f7c1c6414147
dbt2005-01-19d2t05.flac:0ca6b87a2871430dd6d0dbeb1c54d73c
dbt2005-01-19d2t06.flac:e829d0b020949b30a4d5165db53343ea
dbt2005-01-19d2t07.flac:663b5b4c8ffad64624e402b4a66373b8
dbt2005-01-19d2t08.flac:68ce4bae60f7bbf452431458331a07c0
dbt2005-01-19d2t09.flac:36912cdd150d461eb8661dc7ad15f797
dbt2005-01-19d2t10.flac:afc967c449845fedaf616acbac5ec95e
dbt2005-01-19d2t11.flac:7f4961f266994718a30dc10a52df4d17
dbt2005-01-19d2t12.flac:b594191d8638b472902540fe3d139751
dbt2005-01-19d2t13.flac:ab99ac21e9117afb8bfac830259a4fe2
dbt2005-01-19d2t14.flac:a10407a0d16df72939b6169d09ca64e9
dbt2005-01-19d1t01.flac:b66abe0780a600174ef813f15a78fe09
dbt2005-01-19d1t02.flac:757aaf1634c1834c433e3d6ce4d75627
dbt2005-01-19d1t03.flac:d313b28d8df20ba5b5c501a0a4a952e0

    length     expanded size   cdr  WAVE problems filename
     4:35.18       48552380    ---   --   ---xx   dbt2005-01-19d1t01.flac
     4:59.10       52767164    ---   --   ---xx   dbt2005-01-19d1t02.flac
     5:52.05       62104604    ---   --   ---xx   dbt2005-01-19d1t03.flac
     3:39.29       38699852    ---   --   ---xx   dbt2005-01-19d1t04.flac
     5:02.74       53446892    ---   --   ---xx   dbt2005-01-19d1t05.flac
     6:09.19       65136332    ---   --   ---xx   dbt2005-01-19d1t06.flac
     3:34.20       37796684    ---   --   ---xx   dbt2005-01-19d1t07.flac
     6:20.34       67112012    ---   --   ---xx   dbt2005-01-19d1t08.flac
     6:02.18       63899180    ---   --   ---xx   dbt2005-01-19d1t09.flac
     6:35.36       69762716    ---   --   ---xx   dbt2005-01-19d1t10.flac
     3:54.17       41317628    ---   --   ---xx   dbt2005-01-19d1t11.flac
     4:58.09       52588412    ---   --   ---xx   dbt2005-01-19d1t12.flac
     4:48.34       50883212    ---   --   ---xx   dbt2005-01-19d1t13.flac
     8:38.01       91377596    ---   --   ---xx   dbt2005-01-19d1t14.flac
     3:34.07       37766108    ---   --   ---xx   dbt2005-01-19d2t01.flac
     2:28.07       26123708    ---   --   ---xx   dbt2005-01-19d2t02.flac
     5:27.38       57772220    ---   --   ---xx   dbt2005-01-19d2t03.flac
     4:57.04       52400252    ---   --   ---xx   dbt2005-01-19d2t04.flac
     4:00.70       42500684    ---   --   ---xx   dbt2005-01-19d2t05.flac
     6:25.35       67996364    ---   --   ---xx   dbt2005-01-19d2t06.flac
     3:36.69       38264732    ---   --   ---xx   dbt2005-01-19d2t07.flac
    14:03.18      148747580    ---   --   ---xx   dbt2005-01-19d2t08.flac
     5:56.25       62857244    ---   --   ---xx   dbt2005-01-19d2t09.flac
     5:52.38       62182220    ---   --   ---xx   dbt2005-01-19d2t10.flac
     7:08.69       75661532    ---   --   ---xx   dbt2005-01-19d2t11.flac
     5:10.05       54695804    ---   --   ---xx   dbt2005-01-19d2t12.flac
     4:12.22       44504588    ---   --   ---xx   dbt2005-01-19d2t13.flac
     4:20.41       45960476    ---   --   ---xx   dbt2005-01-19d2t14.flac
   152:23.22     1612878176 B                     (totals for 28 files, 0.5476 o
verall compression ratio)
Show Checksums
ffp
dbt2005-01-19d1t04.flac:0c83e25f6cd20095faac8345d7ca005d
dbt2005-01-19d1t05.flac:02fda86aa2ea0a6c47589d53c75dcffd
dbt2005-01-19d1t06.flac:a40abcf8d4df017601e3116a8b606cd8
dbt2005-01-19d1t07.flac:d624047d5920daa040b517443da6e889
dbt2005-01-19d1t08.flac:ed359e08bf366c65573288ada1216393
dbt2005-01-19d1t09.flac:0d200c0493a9a5f0be2749b4f5684f3f
dbt2005-01-19d1t10.flac:b30ac532190242f9b50ecf8f1eb2816d
dbt2005-01-19d1t11.flac:37346979781ce332be73de57ddf8b251
dbt2005-01-19d1t12.flac:78dc174894788da6636a74dec34c3b75
dbt2005-01-19d1t13.flac:0c935458ed678d40a2f29a4b3e41c3ef
dbt2005-01-19d1t14.flac:8d10239ab2b0f854eb3a49d59781b248
dbt2005-01-19d2t01.flac:67d8ed5a4ad8e61ffa0838d35693e46c
dbt2005-01-19d2t02.flac:8aeb42070689737903d0271e4dabd4ef
dbt2005-01-19d2t03.flac:4513e759993901f2662939227b018823
dbt2005-01-19d2t04.flac:800e8000873236737579f7c1c6414147
dbt2005-01-19d2t05.flac:0ca6b87a2871430dd6d0dbeb1c54d73c
dbt2005-01-19d2t06.flac:e829d0b020949b30a4d5165db53343ea
dbt2005-01-19d2t07.flac:663b5b4c8ffad64624e402b4a66373b8
dbt2005-01-19d2t08.flac:68ce4bae60f7bbf452431458331a07c0
dbt2005-01-19d2t09.flac:36912cdd150d461eb8661dc7ad15f797
dbt2005-01-19d2t10.flac:afc967c449845fedaf616acbac5ec95e
dbt2005-01-19d2t11.flac:7f4961f266994718a30dc10a52df4d17
dbt2005-01-19d2t12.flac:b594191d8638b472902540fe3d139751
dbt2005-01-19d2t13.flac:ab99ac21e9117afb8bfac830259a4fe2
dbt2005-01-19d2t14.flac:a10407a0d16df72939b6169d09ca64e9
dbt2005-01-19d1t01.flac:b66abe0780a600174ef813f15a78fe09
dbt2005-01-19d1t02.flac:757aaf1634c1834c433e3d6ce4d75627
dbt2005-01-19d1t03.flac:d313b28d8df20ba5b5c501a0a4a952e0

Comments
Add Comment
Date User Comment