Browse Collections Artists Sources   Search Dates

Add Show    List Management    Help


Drive-By Truckers 01/20/06
40 Watt, Athens, GA
Comments Add Comment    Source Collectors    Add to Collection    Add to Want List    History
Source # 84421 Other Sources
Entered by Kyle pike
Checksums ffp , md5
Disc Counts 0 / 0
Media Size
Date Circulated
Date Added

04/20/2007
Source Summary Neumann KM-184(DIN)> Lunatec V2> Nomad Jukebox 3 (Sloan Simpson) 
  Archive
Source Information - Download Text | Download Zip
Drive-By Truckers - 1/20/06
40 Watt Club - Athens, GA

Disc One:

01) Wednesday
02) Cottonseed
03) The Day John Henry Died
04) Puttin' People On The Moon
05) Zip City
06) Aftermath USA
07) Decoration Day
08) 18 Wheels Of Love
09) One Of These Days
10) Gravity's Gone
11) Heathens
12) Easy On Yourself
13) Feb. 14

Disc Two:

01) Women Without Whiskey
02) Sink Hole
03) Goddamn Lonely Love
04) Danko/Manuel
05) Tales Facing Up
06) Daddy's Cup
07) Lookout Mountain
08) E:) Space City

Disc Three:

01) Bulldozers And Dirt
02) Never Gonna Change
03) Ronnie And Neil
04) Guitar Man Upstairs
05) Road Cases
06) Outfit
07) Let There Be Rock
08) A World Of Hurt
09) Buttholeville

www.drivebytruckers.com

Patterson Hood - guitar, vocal
Mike Cooley - guitar, vocal
Jason Isbell - guitar, keyboard, vocal
Shonna Tucker - bass
Brad "The EZB" Morgan - drums
John Neff - pedal steel

Source: Neumann KM-184(DIN)> Lunatec V2> Nomad Jukebox 3
Transfer: Nomad Jukebox 3> Firewire> Cool Edit Pro(DSP)> CDWave> FLAC Frontend

Recorded and transferred by Sloan Simpson




    length     expanded size   cdr  WAVE problems filename
     4:53.13       51715820    ---   --   ---xx   dbt2006-01-20d1t01.flac
     7:22.48       78081740    ---   --   ---xx   dbt2006-01-20d1t02.flac
     4:10.42       44198828    ---   --   ---xx   dbt2006-01-20d1t03.flac
     5:16.54       55869452    ---   --   ---xx   dbt2006-01-20d1t04.flac
     5:41.21       60201836    ---   --   ---xx   dbt2006-01-20d1t05.flac
     4:29.40       47545724    ---   --   ---xx   dbt2006-01-20d1t06.flac
     8:38.58       91511660    ---   --   ---xx   dbt2006-01-20d1t07.flac
     8:21.43       88477580    ---   --   ---xx   dbt2006-01-20d1t08.flac
     6:50.07       72340508    ---   --   ---xx   dbt2006-01-20d1t09.flac
     5:02.72       53442188    ---   --   ---xx   dbt2006-01-20d1t10.flac
     5:32.68       58724780    ---   --   ---xx   dbt2006-01-20d1t11.flac
     3:41.69       39146732    ---   --   ---xx   dbt2006-01-20d1t12.flac
     4:15.10       45005564    ---   --   ---xx   dbt2006-01-20d1t13.flac
     4:35.04       48519452    ---   --   ---xx   dbt2006-01-20d2t01.flac
     4:57.03       52397900    ---   --   ---xx   dbt2006-01-20d2t02.flac
     5:34.40       59011724    ---   --   ---xx   dbt2006-01-20d2t03.flac
     6:58.50       73852844    ---   --   ---xx   dbt2006-01-20d2t04.flac
     5:18.20       56142284    ---   --   ---xx   dbt2006-01-20d2t05.flac
     6:19.40       66949724    ---   --   ---xx   dbt2006-01-20d2t06.flac
    12:40.63      134212220    ---   --   ---xx   dbt2006-01-20d2t07.flac
     6:14.09       65994812    ---   --   ---xx   dbt2006-01-20d2t08.flac
     6:40.29       70628252    ---   --   ---xx   dbt2006-01-20d3t01.flac
     5:52.00       62092844    ---   --   ---xx   dbt2006-01-20d3t02.flac
     5:48.13       61417820    ---   --   ---xx   dbt2006-01-20d3t03.flac
     5:22.48       56913740    ---   --   ---xx   dbt2006-01-20d3t04.flac
     3:23.55       35938604    ---   --   ---xx   dbt2006-01-20d3t05.flac
     4:47.52       50749148    ---   --   ---xx   dbt2006-01-20d3t06.flac
     8:12.61       86932316    ---   --   ---xx   dbt2006-01-20d3t07.flac
     6:55.21       73255436    ---   --   ---xx   dbt2006-01-20d3t08.flac
     7:30.23       79434140    ---   --   ---xx   dbt2006-01-20d3t09.flac
   181:28.26     1920705672 B                     (totals for 30 files, 0.5580 o
verall compression ratio)
Show Checksums
ffp
dbt2006-01-20d3t07.flac:960995b1f7ce4aa2de201589adf59d9e
dbt2006-01-20d3t08.flac:02e1ef73d9e762a4bd9042c96b936401
dbt2006-01-20d3t09.flac:69e06c5f0238bc196628526f41164077
dbt2006-01-20d1t01.flac:37f075ac4e70ec1981f6dbcf8fe34ee9
dbt2006-01-20d1t02.flac:5db684138f456ed3c763fd73432bda30
dbt2006-01-20d1t03.flac:07482d36ffd51f3e5b868fcab45abf92
dbt2006-01-20d1t04.flac:6110646e25ee82f1af005f46ac472aa5
dbt2006-01-20d1t05.flac:b676dfd491ca921eb1a35c51a9250464
dbt2006-01-20d1t06.flac:3365eb4b8f252a4900eb7165b4f834e9
dbt2006-01-20d1t07.flac:9bbeebe3354334fa8cdb16be3dbd62a5
dbt2006-01-20d1t08.flac:8b08116d9f41f64c2d942286409ff24d
dbt2006-01-20d1t09.flac:833cac5dd48219c30ee96fa563e3cb63
dbt2006-01-20d1t10.flac:9c9b9f06f393907795e6b689a6a21031
dbt2006-01-20d1t11.flac:7e5089992188522b28dae3e5df0775e5
dbt2006-01-20d1t12.flac:a7de0fb9ae99eb36d6eda55e34eded4d
dbt2006-01-20d1t13.flac:38fe229aa57fd833364df972b86fb4ca
dbt2006-01-20d2t01.flac:290c39329426e3b7bfa5e29a7da7cf7d
dbt2006-01-20d2t02.flac:fb2d07af4b16953998dbe79c1b5fcbbe
dbt2006-01-20d2t03.flac:c27d7088011ddafa7bcea1239142fddb
dbt2006-01-20d2t04.flac:9398fcdcfaf889b2289bda53027388a6
dbt2006-01-20d2t05.flac:fac2ae64f5d50bbedd0ba6fae797b6fd
dbt2006-01-20d2t06.flac:95d88c5d64cf9d3ee6c33717bb72ffe1
dbt2006-01-20d2t07.flac:e8c6c3e0342de734b5e2fccc4a1a5d22
dbt2006-01-20d2t08.flac:fae6c9b1b96eb6621ba74b1476675e52
dbt2006-01-20d3t01.flac:4a03744376f5f0ae0bf1ca411a6de52e
dbt2006-01-20d3t02.flac:b8963a4feb663b9d39c85350cf466054
dbt2006-01-20d3t03.flac:1fca772c2a5b9bdf9cc6c556a7b0cfcd
dbt2006-01-20d3t04.flac:f18ec9928610dcdccab8e2029fdb9481
dbt2006-01-20d3t05.flac:e2137f2e4e25547c35dcaabe8bb87151
dbt2006-01-20d3t06.flac:83bad195ac2fb60baff8c6a79b6795d9
md5
cfd861106e66a4a86973c1c4ba3c3d01 *dbt2006-01-20d1t01.flac
cec54c39c26efc79b0ec2136b9b22f26 *dbt2006-01-20d1t02.flac
61e0f312ddcecb89e8de48723203c5ac *dbt2006-01-20d1t03.flac
030824b7084707d5e1e533a3770cdac9 *dbt2006-01-20d1t04.flac
fb32517da44dad8c43d3617f498de0b7 *dbt2006-01-20d1t05.flac
7f6ff21f21332c37c405d70ff950e869 *dbt2006-01-20d1t06.flac
d37c50edcfb14dfe1118329cf653914b *dbt2006-01-20d1t07.flac
1a34e78254d51bfffb5baab14b80ec18 *dbt2006-01-20d1t08.flac
f4fc9e7df1e8e2a4a44c1009fb13881b *dbt2006-01-20d1t09.flac
96ab062bbd5098c3de43fe4a14bcc1f7 *dbt2006-01-20d1t10.flac
9a4c580fe660af1ba29ce8870f8bad20 *dbt2006-01-20d1t11.flac
a9f0952686bb2c8db6cad81f579fdd96 *dbt2006-01-20d1t12.flac
a57fd019d1b87da264e594266948d8d3 *dbt2006-01-20d1t13.flac
f743941b8e8e05dfd10f436f39379fbc *dbt2006-01-20d2t01.flac
3794039fe7fa71b284d4c45baaaf7aa6 *dbt2006-01-20d2t02.flac
6c77c4396cebc807b9d195e14d9bc63a *dbt2006-01-20d2t03.flac
16aa6771809cb7a8a877d6297d82a099 *dbt2006-01-20d2t04.flac
3b07f90285d80eeec7e006cf0ff8ad80 *dbt2006-01-20d2t05.flac
b77550b495b1b2d2023263c1d8dee1af *dbt2006-01-20d2t06.flac
3f0b5b4a9023df785a0eb0a9f778ec37 *dbt2006-01-20d2t07.flac
1a94a7d7be23e57286e1047bce44aa15 *dbt2006-01-20d2t08.flac
29677fc73cee197d28b2383f33a2ad03 *dbt2006-01-20d3t01.flac
943b9612e95565e5da559ee1aa76ca5c *dbt2006-01-20d3t02.flac
078f774a5ac81575806869e8ed7b3e03 *dbt2006-01-20d3t03.flac
5982807a8a8288daa9eb6742c664f6bc *dbt2006-01-20d3t04.flac
617133130bbcfee9113ad549e2294a0c *dbt2006-01-20d3t05.flac
5a42bba020733ad2c9f8362f7fc4f971 *dbt2006-01-20d3t06.flac
2bc4128aacfc8408edae72d0c933e70f *dbt2006-01-20d3t07.flac
d994bb6a63388d10dfbb6c21453c4c8c *dbt2006-01-20d3t08.flac
c2fdc5e4e498def77808a90a8d490170 *dbt2006-01-20d3t09.flac

Comments
Add Comment
Other Sources (comments)
DPA 4011 > V2 > AD2K+ > 722... (0)
Date User Comment