Browse Collections Artists Sources   Search Dates

Add Show    List Management    Help


Drive-By Truckers 02/24/06
The Orange Peel, Asheville, NC
Comments Add Comment    Source Collectors    Add to Collection    Add to Want List    History
Source # 84424 Other Sources
Entered by Kyle pike
Checksums d1
Disc Counts 0 / 0
Media Size
Date Circulated
Date Added

04/20/2007
Source Summary [AKG 483 > Lunatec V3 > Nomad Jukebox 3] + [SBD > Nomad Jukebox 3] (Gordon Wilson) 
  Archive
Source Information - Download Text | Download Zip
Drive-By Truckers
02/24/06
The Orange Peel
Asheville,NC

source:  aud/sbd matrix
55 % aud
45 % sbd
post show matrix done using montage in wavelab 5.01b

aud source:  AKG 480/ck63 > Lunatec V3 > Nomad Jukebox 3
location:    directly in front of soundboard dfc 45' dina
sbd source:  SBD > rca > Nomad Jukebox 3

transfer: JB3 > firewire > nomad explorer > wavelab 5.01b > cd wave > flac level 6

taped, transferred & matrix by Gordon Wilson

disc one:

1. Wednesday
2. 72 (This Highway's Mean)
3. Daylight
4. Aftermath USA
5. Sinkhole
6. Where The Devil Don't Stay
7. Dead Drunk and Naked
8. Guitar Man Upstairs
9. Never Gonna Change
10. The Living Bubba
11. Carl Perkins Cadillac
12. Let Me Roll It

disc two:

1. My Sweet Annette
2. Bulldozers & Dirt
3. Marry Me *
4. Feb 14
5. Outfit
6. Puttin' People on the Moon *
7. Daddy's Cup
8. Ronnie and Neil *
9. Decoration Day
10. Do It Yourself
11. Shut Up and Get On The Plane

disc three:

encore:

1. Banter
2. 18 Wheels of Love
3. Zip City
4. Goddamn Lonely Love
5. World of Hurt *
6. Let There Be Rock
7. Buttholeville *

encore 2:

8. Banter
9. Lookout Mountain *
10. People Who Died

notes:
John Neff on peddle steal for the whole show
* audible technical problems with Cooley's guitar (one second or less), gain lowered in wavelab to smooth them out.
sector boundaries confirmed with shntool v2.0.3
fades added at the beginning and end of set with wavelab 5.01b

shntool output:
    length     expanded size   cdr  WAVE problems filename
     4:58.51       52687196    ---   --   ---xx   dbt2006-02-24d1t01.flac
     5:51.19       61961132    ---   --   ---xx   dbt2006-02-24d1t02.flac
     3:49.04       40405052    ---   --   ---xx   dbt2006-02-24d1t03.flac
     4:17.47       45445388    ---   --   ---xx   dbt2006-02-24d1t04.flac
     4:05.49       43333292    ---   --   ---xx   dbt2006-02-24d1t05.flac
     5:35.56       59225756    ---   --   ---xx   dbt2006-02-24d1t06.flac
     5:31.01       58390796    ---   --   ---xx   dbt2006-02-24d1t07.flac
     3:50.47       40682588    ---   --   ---xx   dbt2006-02-24d1t08.flac
     6:08.25       64974044    ---   --   ---xx   dbt2006-02-24d1t09.flac
     6:48.18       72013580    ---   --   ---xx   dbt2006-02-24d1t10.flac
     6:08.03       64922300    ---   --   ---xx   dbt2006-02-24d1t11.flac
     6:57.41       73655276    ---   --   ---xx   dbt2006-02-24d1t12.flac
     4:51.11       51358316    ---   --   ---xx   dbt2006-02-24d2t01.flac
     5:36.27       59333948    ---   --   ---xx   dbt2006-02-24d2t02.flac
     6:01.28       63746300    ---   --   ---xx   dbt2006-02-24d2t03.flac
     4:12.68       44612780    ---   --   ---xx   dbt2006-02-24d2t04.flac
     4:59.48       52856540    ---   --   ---xx   dbt2006-02-24d2t05.flac
     5:41.37       60239468    ---   --   ---xx   dbt2006-02-24d2t06.flac
     6:08.08       64934060    ---   --   ---xx   dbt2006-02-24d2t07.flac
     5:37.21       59496236    ---   --   ---xx   dbt2006-02-24d2t08.flac
     6:34.51       69621596    ---   --   ---xx   dbt2006-02-24d2t09.flac
     3:36.71       38269436    ---   --   ---xx   dbt2006-02-24d2t10.flac
     7:58.29       84387452    ---   --   ---xx   dbt2006-02-24d2t11.flac
     1:22.67       14622428    ---   --   ---xx   dbt2006-02-24d3t01.flac
     9:14.13       97756220    ---   --   ---xx   dbt2006-02-24d3t02.flac
     6:13.54       65924252    ---   --   ---xx   dbt2006-02-24d3t03.flac
     5:54.27       62509148    ---   --   ---xx   dbt2006-02-24d3t04.flac
     6:06.60       64703564    ---   --   ---xx   dbt2006-02-24d3t05.flac
     7:42.55       81626204    ---   --   ---xx   dbt2006-02-24d3t06.flac
     9:47.62      103692668    ---   --   ---xx   dbt2006-02-24d3t07.flac
     1:07.58       11955260    ---   --   ---xx   dbt2006-02-24d3t08.flac
     5:01.25       53155244    ---   --   ---xx   dbt2006-02-24d3t09.flac
     6:26.05       68102204    ---   --   ---xx   dbt2006-02-24d3t10.flac
   184:17.61        1860.24 MB                    (totals for 33 files, 0.5871 overall compression ratio)


Show Checksums
d1
dbt2006-02-24d1t01.flac:b0324051cc1a4a34b579471eaf111630
dbt2006-02-24d1t02.flac:4fea75d1564a78ce8677224bda2dcac1
dbt2006-02-24d1t03.flac:4d8ecfba582ff7d72c2342031cc5877c
dbt2006-02-24d1t04.flac:2df11a0cfd3b68282bd3db74befd26b0
dbt2006-02-24d1t05.flac:e758fb91885d24f8060a7b8a0cf40c4a
dbt2006-02-24d1t06.flac:8cf3880e496a876f50880484de116299
dbt2006-02-24d1t07.flac:84c9e3895ff5bb570c6e1221cf1740bd
dbt2006-02-24d1t08.flac:c2323eac34b6978ed0880fc74cef3b89
dbt2006-02-24d1t09.flac:cc3b660617f00faab49d775c8b95fc5a
dbt2006-02-24d1t10.flac:544e44e16d0484126cdca1be7419af17
dbt2006-02-24d1t11.flac:7b1e4ce21d84f199198f0fc8f32772d4
dbt2006-02-24d1t12.flac:65eaa1d027cf3e67733242b9c620a237
dbt2006-02-24d2t01.flac:7e3f05de5386010612bd1a81abedbb81
dbt2006-02-24d2t02.flac:cd537b7f1896608bd64254333264c61e
dbt2006-02-24d2t03.flac:2eec33c164340f4bdfcab2299e93ad98
dbt2006-02-24d2t04.flac:2ba0fa02128c919aa8418b9d2dd0c568
dbt2006-02-24d2t05.flac:0212d57e6eef27fe93d6ab2c224a961d
dbt2006-02-24d2t06.flac:34d3c58ffcab28b612b5b533cbae8826
dbt2006-02-24d2t07.flac:8068458924b0f1db7bc303061cb2add6
dbt2006-02-24d2t08.flac:4419ddabb9eaac401f6158d6277298ca
dbt2006-02-24d2t09.flac:27cba8455a23cd69b374c1c4d3cef8d2
dbt2006-02-24d2t10.flac:b0aa5afc1a378303d956991fbd23b964
dbt2006-02-24d2t11.flac:3678c07b682885e955de560ea17878bf
dbt2006-02-24d3t01.flac:5c1d3a639669da02fff122e278413984
dbt2006-02-24d3t02.flac:150a68dd3bf036143e877bd8385225f0
dbt2006-02-24d3t03.flac:292ff71387b90520a8b6d2151ab74948
dbt2006-02-24d3t04.flac:84b5440312534eab0886029b19aff811
dbt2006-02-24d3t05.flac:5380ff3212537c46a2eaf805fdc41d78
dbt2006-02-24d3t06.flac:bffd852bc02cc167256a75aa9557b32b
dbt2006-02-24d3t07.flac:4170b3eda0249d4b47191a0836ba429e
dbt2006-02-24d3t08.flac:6397b7f996e5bd12f88c5a190a481eba
dbt2006-02-24d3t09.flac:334d26788bb32d09bbc979956b78ab9c
dbt2006-02-24d3t10.flac:1614b513e0da5b26015766e81affa365

Comments
Add Comment
Date User Comment