Browse Collections Artists Sources   Search Dates

Add Show    List Management    Help


Grateful Dead 07/06/87
Civic Arena, Pittsburgh, PA
Comments Add Comment    Source Collectors    Add to Collection    Add to Want List    History
Source # 84623 Other Sources
Entered by Matt Vernon
Checksums flac-md5 , ffp
Disc Counts 2 / 2
Media Size
Date Circulated
Date Added
04/27/2007
04/28/2007
Source Summary flac16; Source: 2 Sennheiser 421s > Sony D5 > Sony D5 > TDK; Transfer: Master Cassettes > Nakamichi Dragon > Kind Kables > Lunatec V3 > coax > Audiophile 2496 > WaveLab 5 > WAV @24/96 > TLH > FLAC24; Editing : FLAC24 > Wavelab 5.0 using Ozone and L3 for dither > FLAC16 
  Archive
Source Information - Download Text | Download Zip
Grateful Dead
7/06/87 - Monday
Pittsburgh Civic Arena
Pittsburgh, PA

Source: 2 Sennheiser 421s > Sony D5 > Sony D5 > TDK

Location: one row in front of SBD, ROB or LOB?

Taper: Lucien Zaleski  

Transfer: Master Cassettes > Nakamichi Dragon > Kind Kables > Lunatec V3 >
coax > Audiophile 2496 > WaveLab 5 > WAV @24/96 > TLH > FLAC24.

Editing : All Editing and Mastering by Andy Foust
FLAC24 > Wavelab 5.0 using Ozone and L3 for dither > FLAC16
April 22, 2007
[email protected]
Tracked in Wavelab and Flaced in TLH Level 8



a **GEMS** Production  www.shnflac.net


Notes:

- * w/ The Neville Brothers
- Master Audience Cassettes provided by Mark McCue
- Transfer by Alex Ford 04/02/2007.
- tape flip in Space patched with SHNID 3829



Set I (Disc 1)

01. Tuning
02. Feel Like A Stranger >
03. Franklin's Tower
04. New Minglewood Blues
05. Row Jimmy  
06. Mama Tried >
07. Big River
08. Far From Me
09. Stagger Lee >
10. Desolation Row >
11. Don't Ease Me In


Set II (Disc 2)


01. Tuning
02. Shakedown Street >
03. Samson And Delilah
04. Iko Iko* >
05. Banana Boat Song (Day-O)* >
06. Man Smart (Woman Smarter)* >
07. Drums >
08. Space >
09. Knockin' On Heaven's Door* >
10. Good Lovin'*
Encore:
11. Johnny B. Goode*


gd87-07-06.GEMS.d1t01.flac:8443788d8b62a58fafb6e95764e2780b
gd87-07-06.GEMS.d1t02.flac:948ae40439e20c0372b453ffd7aca3ba
gd87-07-06.GEMS.d1t03.flac:2a44e61e822b46913e10b39ae55bcc17
gd87-07-06.GEMS.d1t04.flac:a41ac327d3a5b61557f2400f9ddbea08
gd87-07-06.GEMS.d1t05.flac:e115030fe319733e1ec2598cea128fba
gd87-07-06.GEMS.d1t06.flac:8d3bb2c95f1b21ce7c792618e871a778
gd87-07-06.GEMS.d1t07.flac:095c8974c6ad36ecc2bf8d1f72d47a87
gd87-07-06.GEMS.d1t08.flac:8f78ed9916853d42198f305214d7cf12
gd87-07-06.GEMS.d1t09.flac:bc0fe182b00f13fbe4580efdf975cb23
gd87-07-06.GEMS.d1t10.flac:b08f2feacd223bcd1d424a4d34788c4f
gd87-07-06.GEMS.d1t11.flac:78a894cc4c95d828600ccb82845dd16a
gd87-07-06.GEMS.d2t01.flac:28b6597fe76280bf86bcbd663562cb4c
gd87-07-06.GEMS.d2t02.flac:c343c1247b589e1cfed3dce2eff4bbad
gd87-07-06.GEMS.d2t03.flac:97e11648ad17c54ccc61cce1a80a1916
gd87-07-06.GEMS.d2t04.flac:456f869c35f646abf25b98932c477cc2
gd87-07-06.GEMS.d2t05.flac:0268134578e289b62255161ee8706b11
gd87-07-06.GEMS.d2t06.flac:f67174018b65a1dd740736960a65abf0
gd87-07-06.GEMS.d2t07.flac:1746cd0986f994931c174b6399938d64
gd87-07-06.GEMS.d2t08.flac:db71e02b60cec662b30abfc12d09fd4a
gd87-07-06.GEMS.d2t09.flac:a5f58e4eff1523e95da0d13eba2e7610
gd87-07-06.GEMS.d2t10.flac:988c98dbe9fe1786d4277d46e68950be
gd87-07-06.GEMS.d2t11.flac:15e1181264b58fa6000373f301b66dba


131658a04dbec0d94fe3c171f74180fe *gd87-07-06.GEMS.d1t01.flac
8b77af9573368310860b71cdb2b93d0e *gd87-07-06.GEMS.d1t02.flac
94cbc44ffa49cc358f1fba914877a435 *gd87-07-06.GEMS.d1t03.flac
e0be75a3b18319baf171c3e6e1614da8 *gd87-07-06.GEMS.d1t04.flac
57b8e550ef14cf720121f0b5c8ada4a0 *gd87-07-06.GEMS.d1t05.flac
7a97c0df1ccaf6a5daab79b89cc41620 *gd87-07-06.GEMS.d1t06.flac
7795364122b72036ccd47c8f55b2362c *gd87-07-06.GEMS.d1t07.flac
f8ad086965cf420b772918de88d5d420 *gd87-07-06.GEMS.d1t08.flac
4ed361df893f7a09f3e4a34ac5a696e7 *gd87-07-06.GEMS.d1t09.flac
44715efc23ee7108b56ab21de2cb46e1 *gd87-07-06.GEMS.d1t10.flac
5a39177c47fa8752b127d69e3e333c89 *gd87-07-06.GEMS.d1t11.flac
c665f1cb5d3996136016298b464dadc9 *gd87-07-06.GEMS.d2t01.flac
6f11c6c272408ad5da092cb0790c7f49 *gd87-07-06.GEMS.d2t02.flac
fdb926eb578d0a11b5f29ea807b278f5 *gd87-07-06.GEMS.d2t03.flac
0c82fa2c1c848d0a17a24ff1b7c52c2e *gd87-07-06.GEMS.d2t04.flac
f4c49656f88cf1fd91b968588394e45f *gd87-07-06.GEMS.d2t05.flac
bcbde950f0d069d28df62300a27bc68c *gd87-07-06.GEMS.d2t06.flac
bf800d36aa6c35a8e9702154b99e0b6d *gd87-07-06.GEMS.d2t07.flac
e34a7f3478a26fcb28f15147ac13282f *gd87-07-06.GEMS.d2t08.flac
e6db75cadd302ec936a750ee96b051e6 *gd87-07-06.GEMS.d2t09.flac
0556c0a40ac29f4e28ee42fd8d91b393 *gd87-07-06.GEMS.d2t10.flac
ab4d7cc0f38b8728eb290c4e1857ed69 *gd87-07-06.GEMS.d2t11.flac


   length     expanded size   cdr  WAVE problems filename
     2:12.58       23421260    ---   --   ---xx   gd87-07-06.GEMS.d1t01.flac
     7:23.18       78187580    ---   --   ---xx   gd87-07-06.GEMS.d1t02.flac
     7:57.41       84239276    ---   --   ---xx   gd87-07-06.GEMS.d1t03.flac
     8:41.48       92017340    ---   --   ---xx   gd87-07-06.GEMS.d1t04.flac
     9:59.38      105753020    ---   --   ---xx   gd87-07-06.GEMS.d1t05.flac
     2:36.53       27643100    ---   --   ---xx   gd87-07-06.GEMS.d1t06.flac
     5:33.74       58915292    ---   --   ---xx   gd87-07-06.GEMS.d1t07.flac
     6:09.39       65183372    ---   --   ---xx   gd87-07-06.GEMS.d1t08.flac
     5:12.65       55189724    ---   --   ---xx   gd87-07-06.GEMS.d1t09.flac
    10:31.60      111449564    ---   --   ---xx   gd87-07-06.GEMS.d1t10.flac
     3:38.31       38528156    ---   --   ---xx   gd87-07-06.GEMS.d1t11.flac
     1:27.54       15473852    ---   --   ---xx   gd87-07-06.GEMS.d2t01.flac
    12:11.72      129117788    ---   --   ---xx   gd87-07-06.GEMS.d2t02.flac
     8:08.18       86125580    ---   --   ---xx   gd87-07-06.GEMS.d2t03.flac
     6:00.02       63508748    ---   --   ---xx   gd87-07-06.GEMS.d2t04.flac
     2:22.13       25079420    ---   --   ---xx   gd87-07-06.GEMS.d2t05.flac
     6:15.18       66192380    ---   --   ---xx   gd87-07-06.GEMS.d2t06.flac
     8:33.14       90526172    ---   --   ---xx   gd87-07-06.GEMS.d2t07.flac
     8:36.61       91165916    ---   --   ---xx   gd87-07-06.GEMS.d2t08.flac
     8:56.15       94585724    ---   --   ---xx   gd87-07-06.GEMS.d2t09.flac
     8:47.48       93075740    ---   --   ---xx   gd87-07-06.GEMS.d2t10.flac
     4:11.65       44429324    ---   --   ---xx   gd87-07-06.GEMS.d2t11.flac
   145:29.05     1539808328 B                     (totals for 22 files, 0.6816 overall compression ratio)






Show Checksums
flac-md5
131658a04dbec0d94fe3c171f74180fe *gd87-07-06.GEMS.d1t01.flac
8b77af9573368310860b71cdb2b93d0e *gd87-07-06.GEMS.d1t02.flac
94cbc44ffa49cc358f1fba914877a435 *gd87-07-06.GEMS.d1t03.flac
e0be75a3b18319baf171c3e6e1614da8 *gd87-07-06.GEMS.d1t04.flac
57b8e550ef14cf720121f0b5c8ada4a0 *gd87-07-06.GEMS.d1t05.flac
7a97c0df1ccaf6a5daab79b89cc41620 *gd87-07-06.GEMS.d1t06.flac
7795364122b72036ccd47c8f55b2362c *gd87-07-06.GEMS.d1t07.flac
f8ad086965cf420b772918de88d5d420 *gd87-07-06.GEMS.d1t08.flac
4ed361df893f7a09f3e4a34ac5a696e7 *gd87-07-06.GEMS.d1t09.flac
44715efc23ee7108b56ab21de2cb46e1 *gd87-07-06.GEMS.d1t10.flac
5a39177c47fa8752b127d69e3e333c89 *gd87-07-06.GEMS.d1t11.flac
c665f1cb5d3996136016298b464dadc9 *gd87-07-06.GEMS.d2t01.flac
6f11c6c272408ad5da092cb0790c7f49 *gd87-07-06.GEMS.d2t02.flac
fdb926eb578d0a11b5f29ea807b278f5 *gd87-07-06.GEMS.d2t03.flac
0c82fa2c1c848d0a17a24ff1b7c52c2e *gd87-07-06.GEMS.d2t04.flac
f4c49656f88cf1fd91b968588394e45f *gd87-07-06.GEMS.d2t05.flac
bcbde950f0d069d28df62300a27bc68c *gd87-07-06.GEMS.d2t06.flac
bf800d36aa6c35a8e9702154b99e0b6d *gd87-07-06.GEMS.d2t07.flac
e34a7f3478a26fcb28f15147ac13282f *gd87-07-06.GEMS.d2t08.flac
e6db75cadd302ec936a750ee96b051e6 *gd87-07-06.GEMS.d2t09.flac
0556c0a40ac29f4e28ee42fd8d91b393 *gd87-07-06.GEMS.d2t10.flac
ab4d7cc0f38b8728eb290c4e1857ed69 *gd87-07-06.GEMS.d2t11.flac
ffp
gd87-07-06.GEMS.d1t01.flac:8443788d8b62a58fafb6e95764e2780b
gd87-07-06.GEMS.d1t02.flac:948ae40439e20c0372b453ffd7aca3ba
gd87-07-06.GEMS.d1t03.flac:2a44e61e822b46913e10b39ae55bcc17
gd87-07-06.GEMS.d1t04.flac:a41ac327d3a5b61557f2400f9ddbea08
gd87-07-06.GEMS.d1t05.flac:e115030fe319733e1ec2598cea128fba
gd87-07-06.GEMS.d1t06.flac:8d3bb2c95f1b21ce7c792618e871a778
gd87-07-06.GEMS.d1t07.flac:095c8974c6ad36ecc2bf8d1f72d47a87
gd87-07-06.GEMS.d1t08.flac:8f78ed9916853d42198f305214d7cf12
gd87-07-06.GEMS.d1t09.flac:bc0fe182b00f13fbe4580efdf975cb23
gd87-07-06.GEMS.d1t10.flac:b08f2feacd223bcd1d424a4d34788c4f
gd87-07-06.GEMS.d1t11.flac:78a894cc4c95d828600ccb82845dd16a
gd87-07-06.GEMS.d2t01.flac:28b6597fe76280bf86bcbd663562cb4c
gd87-07-06.GEMS.d2t02.flac:c343c1247b589e1cfed3dce2eff4bbad
gd87-07-06.GEMS.d2t03.flac:97e11648ad17c54ccc61cce1a80a1916
gd87-07-06.GEMS.d2t04.flac:456f869c35f646abf25b98932c477cc2
gd87-07-06.GEMS.d2t05.flac:0268134578e289b62255161ee8706b11
gd87-07-06.GEMS.d2t06.flac:f67174018b65a1dd740736960a65abf0
gd87-07-06.GEMS.d2t07.flac:1746cd0986f994931c174b6399938d64
gd87-07-06.GEMS.d2t08.flac:db71e02b60cec662b30abfc12d09fd4a
gd87-07-06.GEMS.d2t09.flac:a5f58e4eff1523e95da0d13eba2e7610
gd87-07-06.GEMS.d2t10.flac:988c98dbe9fe1786d4277d46e68950be
gd87-07-06.GEMS.d2t11.flac:15e1181264b58fa6000373f301b66dba

Comments
Add Comment
Other Sources (comments)
AUD> Beyer Dynamic M88's>... (0) unknown AUD> ?> CDR> EAC>... (3) flac24; Source:... (0) flac16; Recording... (0) flac24; Recording... (0) flac16; Source Info:... (0) flac16; Recording... (0)
Date User Comment