Browse Collections Artists Sources   Search Dates

Add Show    List Management    Help


Grateful Dead 03/14/81
Hartford Civic Center, Hartford, CT
Comments Add Comment    Source Collectors    Add to Collection    Add to Want List    History
Source # 84826 Other Sources
Entered by Matt Vernon
Checksums ffp , flac-md5
Disc Counts 2 / 3
Media Size
Date Circulated
Date Added
05/04/2007
05/04/2007
Source Summary flac16; Recording by Barry Glassberg: MOTB-0029 Source: Audience FOB Recording Media: Maxell UD-XLII 90 min. Lineage: Nakamichi CM700's > Sony TC-D5M > MAC Transfer: MAC > Nakamichi DR-1 > Grace Design Lunatec V3 > S/pdif > WaveLAB 5.0 > WAV Taped by: B. Glassberg Transfer by: A. Egert Mastering by: C. Ladner 
  Archive
Source Information - Download Text | Download Zip
MotB Release: 0029/16bit
Release Date: April 25, 2007

Band: Grateful Dead
Date: 03/14/1981 - Saturday
Venue: Hartford Civic Center
Location: Hartford, CT

Source: Audience FOB Recording
Media: Maxell UD-XLII 90 min.
Lineage: Nakamichi CM700's > Sony TC-D5M > MAC
Transfer: MAC > Nakamichi DR-1 > Grace Design Lunatec V3 > S/pdif > WaveLAB 5.0 > WAV

Taped by: B. Glassberg
Transfer by: A. Egert
Mastering by: C. Ladner

Set 1:
d1t01 - crowd/tuning
d1t02 - Feel Like A Stranger
d1t03 - Sugaree
d1t04 - Me And My Uncle >
d1t05 - Big River
d1t06 - Peggy-O >
d1t07 - CC Rider
d1t08 - Althea
d1t09 - Passenger
d1t10 - China Cat Sunflower >
d1t11 - I Know You Rider

Set 2:
d2t01 - crowd/tuning
d2t02 - Alabama Getaway >
d2t03 - Greatest Story Ever Told
d2t04 - Ship of Fools
d2t05 - Lost Sailor >
d2t06 - Saint Of Circumstance >
d2t07 - Drums >
d3t01 - Space >
d3t02 - The Other One >
d3t03 - Stella Blue >
d3t04 - I Need A Miracle >
d3t05 - Bertha >
d3t06 - Good Lovin'

Encore:
d3t07 - encore call
d3t08 - One More Saturday Night (1)

Patch Info:
- No patches.

Notes:
- (1) Weir says "Thank you, we're going to do a song of social import now."
-


SHNTOOL OUTPUT:
    length     expanded size   cdr  WAVE problems filename
     1:50.44       19507532    ---   --   ---xx   gd1981-03-14.motb.0029.d1t01.flac
     9:21.28       99026300    ---   --   ---xx   gd1981-03-14.motb.0029.d1t02.flac
    12:31.02      132481148    ---   --   ---xx   gd1981-03-14.motb.0029.d1t03.flac
     2:55.48       30982940    ---   --   ---xx   gd1981-03-14.motb.0029.d1t04.flac
     7:58.66       84474476    ---   --   ---xx   gd1981-03-14.motb.0029.d1t05.flac
     7:27.72       79020188    ---   --   ---xx   gd1981-03-14.motb.0029.d1t06.flac
     9:30.06      100562156    ---   --   ---xx   gd1981-03-14.motb.0029.d1t07.flac
     9:47.72      103716188    ---   --   ---xx   gd1981-03-14.motb.0029.d1t08.flac
     5:51.27       61979948    ---   --   ---xx   gd1981-03-14.motb.0029.d1t09.flac
     5:35.37       59181068    ---   --   ---xx   gd1981-03-14.motb.0029.d1t10.flac
     6:26.27       68153948    ---   --   ---xx   gd1981-03-14.motb.0029.d1t11.flac
     1:58.67       20972828    ---   --   ---xx   gd1981-03-14.motb.0029.d2t01.flac
     5:07.60       54295964    ---   --   ---xx   gd1981-03-14.motb.0029.d2t02.flac
     4:46.71       50617436    ---   --   ---xx   gd1981-03-14.motb.0029.d2t03.flac
     9:02.69       95771132    ---   --   ---xx   gd1981-03-14.motb.0029.d2t04.flac
     6:36.35       69936764    ---   --   ---xx   gd1981-03-14.motb.0029.d2t05.flac
     6:57.50       73676444    ---   --   ---xx   gd1981-03-14.motb.0029.d2t06.flac
    12:33.33      132906860    ---   --   ---xx   gd1981-03-14.motb.0029.d2t07.flac
     2:24.70       25566284    ---   --   ---xx   gd1981-03-14.motb.0029.d3t01.flac
     5:20.31       56520956    ---   --   ---xx   gd1981-03-14.motb.0029.d3t02.flac
    10:04.09      106566812    ---   --   ---xx   gd1981-03-14.motb.0029.d3t03.flac
     3:28.48       36804140    ---   --   ---xx   gd1981-03-14.motb.0029.d3t04.flac
     5:53.23       62323340    ---   --   ---xx   gd1981-03-14.motb.0029.d3t05.flac
     7:35.55       80391404    ---   --   ---xx   gd1981-03-14.motb.0029.d3t06.flac
     1:16.60       13547564    ---   --   ---xx   gd1981-03-14.motb.0029.d3t07.flac
     4:35.24       48566492    ---   --   ---xx   gd1981-03-14.motb.0029.d3t08.flac
   167:00.09     1767550312 B                     (totals for 26 files, 0.6135 overall compression ratio)

   167:00.09     1767550312 B                     (totals for 26 files, 0.6135 overall compression ratio)

Show Checksums
ffp
gd1981-03-14.motb.0029.d1t01.flac:e961f2dddd6de9c55e3e63df33437805
gd1981-03-14.motb.0029.d1t02.flac:f42f1449c213448bd8e2628856a1bead
gd1981-03-14.motb.0029.d1t03.flac:9458daeb3d856d1b6b4c14cd35b39d12
gd1981-03-14.motb.0029.d1t04.flac:e8b0c498e07034f6676d998eb06587d8
gd1981-03-14.motb.0029.d1t05.flac:273947eb1e9c94422f7fe01f48a603bf
gd1981-03-14.motb.0029.d1t06.flac:d8e6ec105fe99d991401aeb4eb5f4bb4
gd1981-03-14.motb.0029.d1t07.flac:121a5ab7c9d728572b9283a9351133f0
gd1981-03-14.motb.0029.d1t08.flac:7b7418ebda196cbbce5c021fbf204e8f
gd1981-03-14.motb.0029.d1t09.flac:c6a233596ca1b0851c20f06a966f2667
gd1981-03-14.motb.0029.d1t10.flac:468ff70176943269ce430a0973611aa7
gd1981-03-14.motb.0029.d1t11.flac:93ef3948043fdac6e9040ca9483e324f
gd1981-03-14.motb.0029.d2t01.flac:04852ea1a64b614b3ba6232fa2c7776d
gd1981-03-14.motb.0029.d2t02.flac:1aed2bfce8926aac13867d059a64dea6
gd1981-03-14.motb.0029.d2t03.flac:c648e6da2f4d0e3233471e3160797f40
gd1981-03-14.motb.0029.d2t04.flac:de0d1269e756f1938411f8e8e0b5b919
gd1981-03-14.motb.0029.d2t05.flac:db3e209c1aca50dce608325b3de71a15
gd1981-03-14.motb.0029.d2t06.flac:ba3e2d1ffc09ede585f344c89ff3beba
gd1981-03-14.motb.0029.d2t07.flac:87637dfdfb74ee1a23f5f98d08118de6
gd1981-03-14.motb.0029.d3t01.flac:3522c0fe9329be5b150b5c387900f434
gd1981-03-14.motb.0029.d3t02.flac:cabb22373251cbbcf7a0068908e30f2d
gd1981-03-14.motb.0029.d3t03.flac:9a63d077cbaa3ab24cd8c85ba33b026b
gd1981-03-14.motb.0029.d3t04.flac:a473e543a32933def034b8ce08d65b77
gd1981-03-14.motb.0029.d3t05.flac:b5c83c37a978624944d2029407087e97
gd1981-03-14.motb.0029.d3t06.flac:bacce7261288c0846b237f8bdd5af105
gd1981-03-14.motb.0029.d3t07.flac:073771f446eb47c05748e18ca38bb278
gd1981-03-14.motb.0029.d3t08.flac:982d677f96dbf22148f2abb7fed27e38
flac-md5
d031dfa3caf1ded7aac17d1813203e35 *gd1981-03-14.motb.0029.d1t01.flac
eb06e8d16984e06ce6342d0748432ef8 *gd1981-03-14.motb.0029.d1t02.flac
293d7448f587533449f36246a4e6aea5 *gd1981-03-14.motb.0029.d1t03.flac
5ecbb787b419026f0df0dbb87554437f *gd1981-03-14.motb.0029.d1t04.flac
0d071a78e57030e9dc1bd8c642fb1944 *gd1981-03-14.motb.0029.d1t05.flac
4e4c20a1b3f8a59cbf010980cdfdf49d *gd1981-03-14.motb.0029.d1t06.flac
6d066b4fd5151cc5e49c2313d8b68f09 *gd1981-03-14.motb.0029.d1t07.flac
549ae2f0262e9111ae48a6d71a5c0b6e *gd1981-03-14.motb.0029.d1t08.flac
fea346030cd24738997bbfaaf0a46533 *gd1981-03-14.motb.0029.d1t09.flac
eba860d83e908621ed7908edcb1c57ae *gd1981-03-14.motb.0029.d1t10.flac
f5395592cfd7eaa8ae94d97b02ceb395 *gd1981-03-14.motb.0029.d1t11.flac
92fca65a6a142db8fa9a6f9d225b0c12 *gd1981-03-14.motb.0029.d2t01.flac
7331a8bc004e768be8254d202276d7d0 *gd1981-03-14.motb.0029.d2t02.flac
0e115cc5b0d296a1cca496a17424e86f *gd1981-03-14.motb.0029.d2t03.flac
8d9c697af9acc1516014b8270085c8e6 *gd1981-03-14.motb.0029.d2t04.flac
c3cd942bf965e8fac32562c4579ecff7 *gd1981-03-14.motb.0029.d2t05.flac
378a33ae4aaf1abb57c72212439f13fb *gd1981-03-14.motb.0029.d2t06.flac
e6d69b86cb6cbd97c4f2b9d350d73809 *gd1981-03-14.motb.0029.d2t07.flac
dc0443f560e215ab57aa3ff99c94b9c6 *gd1981-03-14.motb.0029.d3t01.flac
97c9ad96b28a5dadfab2ece0c6e08fea *gd1981-03-14.motb.0029.d3t02.flac
3f256ba601300c9448cc31f88e6c4e06 *gd1981-03-14.motb.0029.d3t03.flac
3303c53e34e8a50b0eef82c53cd229ee *gd1981-03-14.motb.0029.d3t04.flac
45de438de1ddb755a86ce4d026721f00 *gd1981-03-14.motb.0029.d3t05.flac
13bf99fcf99afc3acd6afea5c18a1a42 *gd1981-03-14.motb.0029.d3t06.flac
45f248a9c1b58062b6f24822543a4c59 *gd1981-03-14.motb.0029.d3t07.flac
a0828a1c349b6b9dad3a27625bcefb9e *gd1981-03-14.motb.0029.d3t08.flac

Comments
Add Comment
Other Sources (comments)
Aud (?)-> CD-> EAC-> SHN;... (3) flac16; Recorded by... (0) flac16; Recording... (0) flac24; Recording... (0) flac16; AUD: 3x... (1) flac16; Recording... (0) flac24; Cassette... (0) flac16; Source Info:... (0) flac24; Source Info:... (0)
Date User Comment